Ссылка на приватное зеркало нашего сайта всего за 1$. Внимание количество ограничено!!!

2 сезон

iTunes

1 сезон

1

2 сезон

2 сезон

iTunes

1 сезон

RePack

30

Новинка

ВАЖНО

ИГРА 18+

pack

RePack

MK11
pack

Забери бонус

RePack

jed

!!Акция!!

Alien_Rage

RePack

fifa19

RePack

Assassins Creed: Odyssey

RePack

NEED FOR SPEED™ PAYBACK

4 сезон

9 сезон

Бесстыжие 9 сезон

Все сериалы

все сериалы на PB.wtf

RePack

FAR CRY 5
  

Моя жизнь — убийство / My Life is Murder / Сезон 1 / Серии 1-10 из 10 (Леа Пурселл, Мат Кинг) [2019, Драма, комедия, детектив, HDTVRip] [MVO] (Jaskier) pb.wtf

Моя жизнь — убийство через торрент pb.wtf

Раздают: 1 [ 0 KB/s ]
Размер: 4.82 GB | Добавлен: 1 год 2 мес. назад | Торрент скачан:16 раз
Скачать  

21-07-2019 15:29 Моя жизнь — убийство Скачать торрент  

Моя жизнь — убийство / My Life is Murder Год выпуска: 2019
Страна: Австралия
Жанр: Драма, комедия, детектив
Продолжительность: ~ 00:55:00
Перевод: Профессиональный (многоголосый закадровый) | Jaskier

Режиссёр: Леа Пурселл, Мат Кинг

В ролях: Бернард Керри, Ебони Вагаланс, Люси Лоулесс, Линдсэй Фаррис, Алекс Цицопулу, Брэд Макдональд

Описание: После смерти мужа, Алекса - смышлёный и не в меру прямолинейный детектив, покинула ряды австралийской полиции. Однако, время от времени, её друг и бывший коллега, Кирнан, консультируется у неё по делам, которые не по зубам менее опытным детективам. И хотя Алекса делает вид, что давно отошла от дел, в глубине души она всё ещё любит тайны и своё ремесло, которому посвятила всю сознательную жизнь.

rating


Качество: HDTVRip
Формат: AVI
Видео: XviD, ~ 1400 Кбит/с, 720x400
Аудио: MP3, 48,0 КГц, 2 ch, 320 kbps - Rus
General
Complete name : E:\My Life is Murder. Season 1 (400p l Jaskier)\my.life.is.murder.s01e01.Jaskier.avi
Format : AVI
Format/Info : Audio Video Interleave
File size : 531 MiB
Duration : 42 min 53 s
Overall bit rate : 1 730 kb/s
Writing application : VirtualDubMod 1.5.10.3 | www.virtualdub-fr.org || (build 2550/release)
Writing library : VirtualDubMod build 2550/release

Video
ID : 0
Format : MPEG-4 Visual
Format profile : Advanced Simple@L5
Format settings : BVOP2 / Custom Matrix
Format settings, BVOP : 2
Format settings, QPel : No
Format settings, GMC : No warppoints
Format settings, Matrix : Custom
Codec ID : XVID
Codec ID/Hint : XviD
Duration : 42 min 53 s
Bit rate : 1 332 kb/s
Width : 720 pixels
Height : 400 pixels
Display aspect ratio : 16:9
Frame rate : 25.000 FPS
Color space : YUV
Chroma subsampling : 4:2:0
Bit depth : 8 bits
Scan type : Progressive
Compression mode : Lossy
Bits/(Pixel*Frame) : 0.185
Stream size : 409 MiB (77%)
Writing library : XviD 73

Audio
ID : 1
Format : MPEG Audio
Format version : Version 1
Format profile : Layer 3
Codec ID : 55
Codec ID/Hint : MP3
Duration : 42 min 53 s
Bit rate mode : Constant
Bit rate : 320 kb/s
Channel(s) : 2 channels
Sampling rate : 48.0 kHz
Compression mode : Lossy
Stream size : 98.2 MiB (19%)
Alignment : Aligned on interleaves
скриншот  скриншот  скриншот  скриншот  
Когда раздача ведётся путём добавления новых серий, при каждом добавлении создётся новый торрент. Чтобы начать докачку новой серии, пользователям необходимо сделать следующее:
(1) остановить скачивание,
(2) удалить старый торрент у себя из клиента (старые серии удалять не надо),
(3) скачать новый торрент и запустить его у себя в клиенте вместо старого, при этом указать клиенту путь в старую папку, куда и должно происходить скачивание новых серий.
Ваш клиент при этом должен произвести хеширование (проверку) старой папки (если не производит сам - помогите ему сделать это), и будет докачивать только те серии, которых у вас ещё нет. Старые серии при этом не удаляются, а продолжают раздаваться!
Eсли вы уже удалили старые серии, то предотвратить повторную закачку старых серий можно, отжав галочку в соответсвующих местах при запуске нового торрента. По возможности, желательно не удалять старые серии как можно дольше, чтобы релизёр не столько продолжал раздавать старые серии, а смог сконцентрироваться на новых.
pb.wtf



Скачать Моя жизнь — убийство через торрент https://i89.fastpic.ru/big/2019/0923/30/943d773ff364adc3a60eedbd5f2fa830.jpeg Скачать фильм Моя жизнь — убийство через торрент бесплантно в хорошем качестве Описание: После смерти мужа, Алекса - смышлёный и не в меру прямолинейный детектив, покинула ряды австралийской полиции. Однако, время от ... 10 10 3
Торрент: Зарегистрирован [2019-09-26 07:12] · скачан: 16 раз
Статус: T временная
Размер: 4.82 GB
Как cкачать? Как скачать Моя жизнь — убийство через торрент | qTorrent

% Раздел Тема Автор DL S | L
T Зарубежные сериалы [ 3.69 GB ] Моя жизнь — убийство / My Life is Murder / Сезон 1 / Серии 1-10 из 10 [2019 WEBRip] [DVO] killermax2013 Скачать
1 | 0

28-11-2019 20:33  

Отключить всю рекламу на сайте

    Дорогой пользователь! Огромная просьба, поблагодарите релизера, оцените раздачу и оставьте свои комментарий, если Вы скачали Моя жизнь — убийство через торрент бесплатно! Внесите свою лепту в развитие PiratBit!
    Комментировать посты могут только пользователи прошедшие не сложную регистрацию
    Показать сообщения:    

    Моя жизнь — убийство через торрент
    Скачать бесплатно Моя жизнь — убийство
    Моя жизнь — убийство скачать торрент
    Моя жизнь — убийство смотреть онлайн
    Cкачать фильм Моя жизнь — убийство бесплатно
    Моя жизнь — убийство скачать торрент в хорошем качестве
    Моя жизнь — убийство смотреть онлайн бесплатно в хорошем качестве


    Вы не можете начинать темы
    Вы не можете отвечать на сообщения
    Вы не можете редактировать свои сообщения
    Вы не можете удалять свои сообщения
    Вы не можете голосовать в опросах
    Вы не можете прикреплять файлы к сообщениям
    Вы можете скачивать файлы