Ссылка на приватное зеркало нашего сайта всего за 1$. Внимание количество ограничено!!!

2 сезон

iTunes

1 сезон

1

2 сезон

2 сезон

iTunes

1 сезон

RePack

30

Ultimate

ВАЖНО

ИГРА 18+

pack

RePack

MK11
pack

Забери бонус

RePack

jed

!!Акция!!

Alien_Rage

RePack

fifa19

RePack

Assassins Creed: Odyssey

RePack

NEED FOR SPEED™ PAYBACK

4 сезон

9 сезон

Бесстыжие 9 сезон

Все сериалы

все сериалы на PB.wtf

RePack

FAR CRY 5
  

Робот Джокс / Роботы бойцы / Robot Jox (Стюарт Гордон / Stuart Gordon) [1989, фантастика, боевик, BDRemux 1080p] 3x[DVO] + 3x[AVO] (Дохалов, Иванов, Сербин) pb.wtf

Робот Джокс через торрент pb.wtf

Размер: 18.33 GB | Добавлен: 4 мес. 8 д. назад | Торрент скачан:10 раз
Скачать  

21-07-2019 19:22 Робот Джокс Скачать торрент  

Робот Джокс / Роботы бойцы
Robot Jox
Год выпуска: 1989
Страна: США
Жанр: фантастика, боевик
Продолжительность: 01:24:44
Перевод 1 : Профессиональный (двухголосый, закадровый) - НТВ+
Перевод 2 : Профессиональный (двухголосый, закадровый) - Рен-ТВ (Sv-Kadr)
Перевод 3 : Любительский (двухголосый, закадровый) - Nov@rtiS & Tiger25
Перевод 4 : Авторский (одноголосый, закадровый) - В. Дохалов
Перевод 5 : Авторский (одноголосый, закадровый) - М. Иванов
Перевод 6 : Авторский (одноголосый, закадровый) - Ю. Сербин
Оригинальная аудиодорожка: английская
Субтитры: русские, английские




Режиссёр: Стюарт Гордон / Stuart Gordon

В ролях: Гэри Грэм, Энн-Мари Джонсон, Пол Косло, Роберт Сэмпсон, Дэниэл Кэймикона, Хилари Мэйсон
Описание: Спустя полвека после окончания ядерной войны человечество нашло способ более цивилизованного разрешения конфликтов. Представители новообразованных государств выставляют на бой гигантских роботов, управляемых пилотами, сидящими внутри, – Роботов Джокс. Ахиллес, выходец с Аляски, является последней надеждой американцев. Их основных соперников, русских, представляет многоопытный пилот по имени Александр, на чьём счету несколько побед над его соотечественниками.
rating
Качество: BDRemux
Формат: MKV
Видео: MPEG-4 AVC Video / 24497 kbps / 1080p / 23.976 fps / 16:9 / High Profile 4.1
Аудио 1: AC3, 48 kHz, 2ch, 192.00 kbps: [DVO][НТВ+]
Аудио 2: AC3, 48 kHz, 2ch, 192.00 kbps: [DVO][RenTV(SV-Kadr)] двойное моно
Аудио 3: AC3, 48 kHz, 2ch, 192.00 kbps: [DVO][Nov@rtiS & Tiger25]
Аудио 4: AC3, 48 kHz, 2ch, 192.00 kbps: [AVO][Дохалов]
Аудио 5: AC3, 48 kHz, 2ch, 192.00 kbps: [AVO][Иванов]
Аудио 5: AC3, 48 kHz, 2ch, 192.00 kbps: [AVO][Сербин]
Аудио 7: DTS-HD Master Audio / 2.0 / 48 kHz / 2078 kbps / 24-bit (DTS Core: 2.0 / 48 kHz / 1509 kbps / 24-bit)[ENG]
Аудио 8: DTS-HD Master Audio / 2.0 / 48 kHz / 1655 kbps / 24-bit (DTS Core: 2.0 / 48 kHz / 1509 kbps / 24-bit)[Audio Commentary with Director Stuart Gordon]
Аудио 9: DTS-HD Master Audio / 2.0 / 48 kHz / 1572 kbps / 24-bit (DTS Core: 2.0 / 48 kHz / 1509 kbps / 24-bit)[Audio Commentary with Associate Effects Director Paul Gentry]

Формат субтитров: softsub (SRT), prerendered (Blu-ray/PGS/SUP)
Разбивка на главы: есть
General
Уникальный идентификатор : 136365105041022539203949849157465755026 (0x6696F6C34062FC6E5BFB53DB6A1F4D92)
Полное имя : D:\HD видео\Robot Jox\Robot Jox 1989 (1080p).mkv
Формат : Matroska
Версия формата : Version 4
Размер файла : 18.3 GiB
Продолжительность : 1 h 24 min
Режим общего битрейта : Variable
Общий поток : 31.0 Mb/s
Дата кодирования : UTC 2019-10-20 13:44:45
Программа кодирования : mkvmerge v37.0.0 ('Leave It') 64-bit
Библиотека кодирования : libebml v1.3.9 + libmatroska v1.5.2

Video
Идентификатор : 1
Формат : AVC
Формат/Информация : Advanced Video Codec
Профиль формата : High@L4.1
Настройки формата : CABAC / 2 Ref Frames
Параметр CABAC формата : Yes
Параметр RefFrames формата : 2 frames
Параметр GOP формата : M=1, N=5
Идентификатор кодека : V_MPEG4/ISO/AVC
Продолжительность : 1 h 24 min
Вид битрейта : Variable
Битрейт : 24.5 Mb/s
Максимальный битрейт : 28.1 Mb/s
Ширина : 1 920 pixels
Высота : 1 080 pixels
Соотношение сторон : 16:9
Режим частоты кадров : Constant
Частота кадров : 23.976 (24000/1001) FPS
Цветовое пространство : YUV
Субдискретизация насыщенности : 4:2:0
Битовая глубина : 8 bits
Тип развёртки : Progressive
Бит/(Пиксели*Кадры) : 0.493
Размер потока : 14.5 GiB (79%)
Default : Yes
Forced : No

Audio #1
Идентификатор : 2
Формат : AC-3
Формат/Информация : Audio Coding 3
Коммерческое название : Dolby Digital
Идентификатор кодека : A_AC3
Продолжительность : 1 h 24 min
Вид битрейта : Constant
Битрейт : 192 kb/s
Каналы : 2 channels
ChannelLayout : L R
Частота : 48.0 kHz
Частота кадров : 31.250 FPS (1536 SPF)
Метод сжатия : Lossy
Размер потока : 116 MiB (1%)
Заголовок : DVO (НТВ+)
Язык : Russian
ServiceKind/String : Complete Main
Default : Yes
Forced : No

Audio #2
Идентификатор : 3
Формат : AC-3
Формат/Информация : Audio Coding 3
Коммерческое название : Dolby Digital
Идентификатор кодека : A_AC3
Продолжительность : 1 h 24 min
Вид битрейта : Constant
Битрейт : 192 kb/s
Каналы : 2 channels
ChannelLayout : L R
Частота : 48.0 kHz
Частота кадров : 31.250 FPS (1536 SPF)
Метод сжатия : Lossy
Размер потока : 116 MiB (1%)
Заголовок : DVO (RenTV (SV-Kadr))
Язык : Russian
ServiceKind/String : Complete Main
Default : No
Forced : No

Audio #3
Идентификатор : 4
Формат : AC-3
Формат/Информация : Audio Coding 3
Коммерческое название : Dolby Digital
Идентификатор кодека : A_AC3
Продолжительность : 1 h 24 min
Вид битрейта : Constant
Битрейт : 192 kb/s
Каналы : 2 channels
ChannelLayout : L R
Частота : 48.0 kHz
Частота кадров : 31.250 FPS (1536 SPF)
Метод сжатия : Lossy
Размер потока : 116 MiB (1%)
Заголовок : DVO (Nov@rtiS & Tiger25)
Язык : Russian
ServiceKind/String : Complete Main
Default : No
Forced : No

Audio #4
Идентификатор : 5
Формат : AC-3
Формат/Информация : Audio Coding 3
Коммерческое название : Dolby Digital
Идентификатор кодека : A_AC3
Продолжительность : 1 h 24 min
Вид битрейта : Constant
Битрейт : 192 kb/s
Каналы : 2 channels
ChannelLayout : L R
Частота : 48.0 kHz
Частота кадров : 31.250 FPS (1536 SPF)
Метод сжатия : Lossy
Размер потока : 116 MiB (1%)
Заголовок : AVO (Дохалов)
Язык : Russian
ServiceKind/String : Complete Main
Default : No
Forced : No

Audio #5
Идентификатор : 6
Формат : AC-3
Формат/Информация : Audio Coding 3
Коммерческое название : Dolby Digital
Идентификатор кодека : A_AC3
Продолжительность : 1 h 24 min
Вид битрейта : Constant
Битрейт : 192 kb/s
Каналы : 2 channels
ChannelLayout : L R
Частота : 48.0 kHz
Частота кадров : 31.250 FPS (1536 SPF)
Метод сжатия : Lossy
Размер потока : 116 MiB (1%)
Заголовок : AVO (Иванов)
Язык : Russian
ServiceKind/String : Complete Main
Default : No
Forced : No

Audio #6
Идентификатор : 7
Формат : AC-3
Формат/Информация : Audio Coding 3
Коммерческое название : Dolby Digital
Идентификатор кодека : A_AC3
Продолжительность : 1 h 24 min
Вид битрейта : Constant
Битрейт : 192 kb/s
Каналы : 2 channels
ChannelLayout : L R
Частота : 48.0 kHz
Частота кадров : 31.250 FPS (1536 SPF)
Метод сжатия : Lossy
Размер потока : 116 MiB (1%)
Заголовок : AVO (Сербин)
Язык : Russian
ServiceKind/String : Complete Main
Default : No
Forced : No

Audio #7
Идентификатор : 8
Формат : DTS XLL
Формат/Информация : Digital Theater Systems
Коммерческое название : DTS-HD Master Audio
Идентификатор кодека : A_DTS
Продолжительность : 1 h 24 min
Вид битрейта : Variable
Битрейт : 2 078 kb/s
Каналы : 2 channels
ChannelLayout : L R
Частота : 48.0 kHz
Частота кадров : 93.750 FPS (512 SPF)
Битовая глубина : 24 bits
Метод сжатия : Lossless
Размер потока : 1.23 GiB (7%)
Язык : English
Default : No
Forced : No

Audio #8
Идентификатор : 9
Формат : DTS XLL
Формат/Информация : Digital Theater Systems
Коммерческое название : DTS-HD Master Audio
Идентификатор кодека : A_DTS
Продолжительность : 1 h 24 min
Вид битрейта : Variable
Битрейт : 1 655 kb/s
Каналы : 2 channels
ChannelLayout : L R
Частота : 48.0 kHz
Частота кадров : 93.750 FPS (512 SPF)
Битовая глубина : 24 bits
Метод сжатия : Lossless
Размер потока : 1 003 MiB (5%)
Заголовок : Commentary With Director
Язык : English
Default : No
Forced : No

Audio #9
Идентификатор : 10
Формат : DTS XLL
Формат/Информация : Digital Theater Systems
Коммерческое название : DTS-HD Master Audio
Идентификатор кодека : A_DTS
Продолжительность : 1 h 24 min
Вид битрейта : Variable
Битрейт : 1 571 kb/s
Каналы : 2 channels
ChannelLayout : L R
Частота : 48.0 kHz
Частота кадров : 93.750 FPS (512 SPF)
Битовая глубина : 24 bits
Метод сжатия : Lossless
Размер потока : 952 MiB (5%)
Заголовок : Commentary With Associate Effects Director
Язык : English
Default : No
Forced : No

Text #1
Идентификатор : 11
Формат : UTF-8
Идентификатор кодека : S_TEXT/UTF8
Идентификатор кодека/Информация : UTF-8 Plain Text
Продолжительность : 1 h 19 min
Битрейт : 82 b/s
ElementCount : 821
Размер потока : 47.9 KiB (0%)
Язык : Russian
Default : No
Forced : No

Text #2
Идентификатор : 12
Формат : UTF-8
Идентификатор кодека : S_TEXT/UTF8
Идентификатор кодека/Информация : UTF-8 Plain Text
Продолжительность : 1 h 19 min
Битрейт : 48 b/s
ElementCount : 869
Размер потока : 28.2 KiB (0%)
Язык : English
Default : No
Forced : No

Text #3
Идентификатор : 13
Формат : PGS
Режим смешивания : zlib
Идентификатор кодека : S_HDMV/PGS
Идентификатор кодека/Информация : Picture based subtitle format used on BDs/HD-DVDs
Продолжительность : 1 h 19 min
Битрейт : 39.5 kb/s
ElementCount : 1738
Размер потока : 22.4 MiB (0%)
Язык : English
Default : No
Forced : No

Menu
00:00:00.000 : :Глава 01
00:10:25.958 : :Глава 02
00:21:06.807 : :Глава 03
00:29:25.388 : :Глава 04
00:41:58.015 : :Глава 05
00:54:00.111 : :Глава 06
01:05:58.079 : :Глава 07
01:21:06.027 : :Глава 08
скриншот  скриншот  скриншот  
https://yadi.sk/d/mg08w_R7089u2A
pb.wtf



Скачать Робот Джокс через торрент https://c.radikal.ru/c28/1905/96/1bc66da16582.jpg Скачать фильм Робот Джокс через торрент бесплантно в хорошем качестве Описание: Спустя полвека после окончания ядерной войны человечество нашло способ более цивилизованного разрешения конфликтов. Представители ... 9.8 10 5
Торрент: Зарегистрирован [2020-07-19 15:48] · скачан: 10 раз
Статус: √ проверено
Размер: 18.33 GB
Как cкачать? Как скачать Робот Джокс через торрент | qTorrent

% Раздел Тема Автор DL S | L
Фильмы с авторской озвучкой [ 1.46 GB ] Робот Джокс / Роботы бойцы / Robot Jox [1990 DVDRip-AVC] 2x[AVO] killermax2013 Скачать
1 | 0

28-11-2019 20:33  

Отключить всю рекламу на сайте

19-07-2020 18:00 Робот Джокс Скачать торрент  

Руки бы отрезать тому , кто видео не обрезает , и оставляет с черными полосами (pb.wtf



    Дорогой пользователь! Огромная просьба, поблагодарите релизера, оцените раздачу и оставьте свои комментарий, если Вы скачали Робот Джокс через торрент бесплатно! Внесите свою лепту в развитие PiratBit!
    Комментировать посты могут только пользователи прошедшие не сложную регистрацию
    Показать сообщения:    

    Робот Джокс через торрент
    Скачать бесплатно Робот Джокс
    Робот Джокс скачать торрент
    Робот Джокс смотреть онлайн
    Cкачать фильм Робот Джокс бесплатно
    Робот Джокс скачать торрент в хорошем качестве
    Робот Джокс смотреть онлайн бесплатно в хорошем качестве


    Вы не можете начинать темы
    Вы не можете отвечать на сообщения
    Вы не можете редактировать свои сообщения
    Вы не можете удалять свои сообщения
    Вы не можете голосовать в опросах
    Вы не можете прикреплять файлы к сообщениям
    Вы можете скачивать файлы