новый адрес
Ссылка на приватное зеркало всего за 1$. Внимание количество ограничено!!!

iTunes

1+1

iTunes

мы

WEB-DL

1

iTunes

Чернобыль

iTunes

Ральф против интернета

Лицензия

ПШазам

Лицензия

Оно 2

Лицензия

30
pack

Вам бонус

ВАЖНО

!!Акция!!

Alien_RageХит недели

RePack

Resident Evil 21

ИГРА 18+

pack

RePack

jed

!!Акция!!

Alien_Rage

RePack

fifa19

RePack

Assassins Creed: Odyssey

RePack

NEED FOR SPEED™ PAYBACK

3 сезон

9 сезон

Бесстыжие 9 сезон

Все сериалы

все сериалы на PB.wtf

RePack

FAR CRY 5
Ребята, катастрофически не хватает 1900р. для оплаты серверов за Октябрь (всвязи с блокировками трафик упал в 3 раза), 1-2р., выручайте.
  

Призраки Шэрон Тейт / The Haunting of Sharon Tate (Дэниэл Фаррандс) [2019, ужасы, триллер, драма, BDRip] DUB [iTunes] pb.wtf

Призраки Шэрон Тейт через торрент pb.wtf

Размер: 1.45 GB | Добавлен: 4 мес. 21 д. назад | Торрент скачан:75 раз
Скачать  

21-07-2019 19:58 Призраки Шэрон Тейт Скачать торрент  

Призраки Шэрон Тейт / The Haunting of Sharon Tate
Год выпуска: 2019
Страна: США
Жанр: ужасы, триллер, драма
Продолжительность: 01:29:49
Перевод: Дублированный | iTunes
Субтитры: отсутствуют

Режиссер: Дэниэл Фаррандс

rating

В ролях: Хилари Дафф, Джонатан Беннетт, Лидия Хёрст, Павел Шайда, Райан Каргилл, Белла Поупэ, Файвел Стюарт, Тайлер Джонсон

Описание: Беременная супруга Романа Полански и ожидающая его возвращения из Европы, 26-летняя голливудская актриса Шэрон Тейт страдает от видений ее скорой смерти.

Качество: BDRip
Формат: AVI

Видео: Xvid 73, 720x304, ~1923 kbps, 23,976 fps
Аудио: русский, AC3, 5.1 ch, 48 kHz, 384 kbps | iTunes
скриншот  скриншот  скриншот  скриншот  скриншот  

General
Complete name : C:UtorrentTheHauntingofSharonTateBDRip.avi
Format : AVI
Format/Info : Audio Video Interleave
Format profile : OpenDML
File size : 1.45 GiB
Duration : 1 h 29 min
Overall bit rate : 2 319 kb/s
Writing application : XviD4PSP 6.0 / 53.6.0

Video
ID : 0
Format : MPEG-4 Visual
Format profile : Advanced Simple@L5
Format settings : BVOP1 / Custom Matrix
Format settings, BVOP : 1
Format settings, QPel : No
Format settings, GMC : No warppoints
Format settings, Matrix : Custom
Codec ID : XVID
Codec ID/Hint : XviD
Duration : 1 h 29 min
Bit rate : 1 923 kb/s
Width : 720 pixels
Height : 304 pixels
Display aspect ratio : 2.35:1
Frame rate : 23.976 (23976/1000) FPS
Color space : YUV
Chroma subsampling : 4:2:0
Bit depth : 8 bits
Scan type : Progressive
Compression mode : Lossy
Bits/(Pixel*Frame) : 0.366
Stream size : 1.21 GiB (83%)
Writing library : XviD 73

Audio
ID : 1
Format : AC-3
Format/Info : Audio Coding 3
Commercial name : Dolby Digital
Codec ID : 2000
Duration : 1 h 29 min
Bit rate mode : Constant
Bit rate : 384 kb/s
Channel(s) : 6 channels
Channel layout : L R C LFE Ls Rs
Sampling rate : 48.0 kHz
Frame rate : 31.250 FPS (1536 SPF)
Bit depth : 16 bits
Compression mode : Lossy
Stream size : 247 MiB (17%)
Alignment : Aligned on interleaves
Interleave, duration : 32 ms (0.77 video frame)

pb.wtf



Скачать Призраки Шэрон Тейт через торрент http://lostpix.com/thumbs/2019-07/21/nzi7srivra4zedq3upat0dejc.png Скачать фильм Призраки Шэрон Тейт через торрент бесплантно в хорошем качестве Описание: Беременная супруга Романа Полански и ожидающая его возвращения из Европы, 26-летняя голливудская актриса Шэрон Тейт страдает от ... 10 10 4
Торрент: Зарегистрирован [2019-07-21 23:59] · скачан: 75 раз
Статус: √ проверено
Размер: 1.45 GB
Как cкачать? Как скачать Призраки Шэрон Тейт через торрент | qTorrent

% Раздел Тема Автор DL S | L
Фильмы 2019 [DVDrip, WEB-DLRip, HDrip] (DUB, MVO) [ 1.42 GB ] Призраки Шэрон Тейт / The Haunting of Sharon Tate [2019 BDRip] - Twi7ter Скачать
16 | 4
Фильмы [HD 720p, 1080p] (Хороший звук DUB, MVO) [ 3.06 GB ] Призраки Шэрон Тейт / The Haunting of Sharon Tate [2019 BDRip 720p] bober100 Скачать
1 | 0
Фильмы [HD 720p, 1080p] (Хороший звук DUB, MVO) [ 7.28 GB ] Призраки Шэрон Тейт / The Haunting of Sharon Tate [2019 BDRip 1080p] bober100 Скачать
1 | 0
T Фильмы (мультфильмы) cо спонсором показа (Новинки AVI/MKV) [ 1.37 GB ] Призраки Шэрон Тейт / The Haunting of Sharon Tate [2019 WEB-DLRip] MVO [@MUZOBOZ@] bober100 Скачать
1 | 0

28-11-2019 20:33  

Отключить всю рекламу на сайте

    Дорогой пользователь! Огромная просьба, поблагодарите релизера, оцените раздачу и оставьте свои комментарий, если Вы скачали Призраки Шэрон Тейт через торрент бесплатно! Внесите свою лепту в развитие PiratBit!
    Комментировать посты могут только пользователи прошедшие не сложную регистрацию
    Показать сообщения:    

    Призраки Шэрон Тейт через торрент
    Скачать бесплатно Призраки Шэрон Тейт
    Призраки Шэрон Тейт скачать торрент
    Призраки Шэрон Тейт смотреть онлайн
    Cкачать фильм Призраки Шэрон Тейт бесплатно
    Призраки Шэрон Тейт скачать торрент в хорошем качестве
    Призраки Шэрон Тейт смотреть онлайн бесплатно в хорошем качестве


    Вы не можете начинать темы
    Вы не можете отвечать на сообщения
    Вы не можете редактировать свои сообщения
    Вы не можете удалять свои сообщения
    Вы не можете голосовать в опросах
    Вы не можете прикреплять файлы к сообщениям
    Вы можете скачивать файлы