Ссылка на приватное зеркало нашего сайта всего за 1$. Внимание количество ограничено!!!

2 сезон

iTunes

1 сезон

1

2 сезон

2 сезон

iTunes

1 сезон

RePack

30

Новинка

ВАЖНО

ИГРА 18+

pack

RePack

MK11
pack

Забери бонус

RePack

jed

!!Акция!!

Alien_Rage

RePack

fifa19

RePack

Assassins Creed: Odyssey

RePack

NEED FOR SPEED™ PAYBACK

4 сезон

9 сезон

Бесстыжие 9 сезон

Все сериалы

все сериалы на PB.wtf

RePack

FAR CRY 5
  

Парни из женской общаги / Sorority Boys (Уоллес Володарски) [2002 г., Комедия, WEB-DL 1080p от KORSAR][3xMVO + DVO + AVO] pb.wtf

Парни из женской общаги через торрент pb.wtf

Размер: 10.86 GB | Добавлен: 1 год 4 мес. назад | Торрент скачан:34 раза
Скачать  

21-07-2019 20:48 Парни из женской общаги Скачать торрент  

Название: Парни из женской общаги
Оригинальное название: Sorority Boys
Год выпуска: 2002
Жанр: Комедия

Режиссер: Уоллес Володарски
В ролях: Бэрри Уотсон, Майкл Розенбаум, Харланд Уильямс, Мелисса Сейджмиллер, Тони Денман, Брэд Бейер, Кэтрин Стоквуд, Хезер Матараццо, Ивонн Шо, Керри Хигучи

О фильме: Друзья-студенты Дэйв, Адам и Дуфер не раз попадпли в переплет, но на этот раз судьба угостила их ну очень сурово, их вышибли из мужского общежития родного колледжа на улицу, ветер в карманах и отсутствие крыши над головой заставляют людей соображать очень быстро, и вот уже коллективный разум друзей производит на свет план настолько же гениальный, насколько безумный: они решают выдать себя... за девушек и найти приют в стенах женского общежития! Да здравствуют парики, косметика и депиляторы! Благодаря им больше нет трио мачо-плейбоев. Есть Дэйзи, Адина и Роберта, троица дюжих «студенток». Новеньких «сестер» ждет теплый прием, но Дэйв-Дэйзи совершает роковой промах, угрожающий ему и друзьям разоблачением - он влюбляется в первую красотку колледжа Лею и намерен несмотря ни на что сообщить ей о своих чувствах!..

rating

Продолжительность: 01:33:44
Выпущено: США, MBST Entertainment, Touchstone Pictures
Перевод: Профессиональный многоголосый, профессиональный двухголосый, авторский

Качество: WEB-DL 1080p
Формат: MKV
Видео: MPEG-4 AVC, 13,8 Мбит/сек, 1920x1040, 23,976 кадра/сек
Аудио #1: AC3, 6 ch, 384 Кбит/сек | Русский, профессиональный (многоголосый закадровый) DVD5
Аудио #2: AC3, 6 ch, 448 Кбит/сек | Русский, профессиональный (двухголосый закадровый) Пётр Гланц с подругой
Аудио #3: AC3, 2 ch, 192 Кбит/сек | Русский, профессиональный (многоголосый закадровый) VHS, Видеосервис
Аудио #4: AC3, 2 ch, 192 Кбит/сек | Русский, профессиональный (многоголосый закадровый) 1 канал, iTunes Russia
Аудио #5: AC3, 2 ch, 192 Кбит/сек | Русский, авторский (одноголосый закадровый) Сергей Визгунов
Аудио #6: AC3, 6 ch, 448 Кбит/сек | Украинский, профессиональный (двухголосый закадровый) 1+1
Аудио #7: EAC3, 6 ch, 640 Кбит/сек | Английский, оригинал
Субтитры: Русские, украинские, английские, немецкие
Навигация по главам: Есть

Релиз от:
Общее
Уникальный идентификатор : 234248626773717709039546932468036532591 (0xB03AA4FC37455F9CB785BD2397CDF96F)
Полное имя : Парни.из.женской.общаги.2002.WEB-DL.1080p.mkv
Формат : Matroska
Версия формата : Version 2
Размер файла : 10,9 Гбайт
Продолжительность : 1 ч. 33 м.
Режим общего битрейта : Переменный
Общий поток : 16,6 Мбит/сек
Дата кодирования : UTC 2018-06-10 13:10:35
Программа кодирования : mkvmerge v5.8.0 ('No Sleep / Pillow') built on Sep 2 2012 15:37:04
Библиотека кодирования : libebml v1.2.3 + libmatroska v1.3.0

Видео
Идентификатор : 1
Формат : AVC
Формат/Информация : Advanced Video Codec
Профиль формата : High@L4
Настройки формата : CABAC / 4 Ref Frames
Параметр CABAC формата : Да
Параметр RefFrames формата : 4 кадра
Идентификатор кодека : V_MPEG4/ISO/AVC
Продолжительность : 1 ч. 33 м.
Вид битрейта : Переменный
Битрейт : 13,8 Мбит/сек
Максимальный битрейт : 15,0 Мбит/сек
Ширина : 1920 пикселей
Высота : 1040 пикселей
Соотношение сторон : 1,85:1
Соотношение сторон в оригинале : 1,85:1
Режим частоты кадров : Постоянный
Частота кадров : 23,976 (24000/1001) кадра/сек
Цветовое пространство : YUV
Субдискретизация насыщенности : 4:2:0
Битовая глубина : 8 бит
Тип развёртки : Прогрессивная
Бит/(Пиксели*Кадры) : 0.287
Размер потока : 9,01 Гбайт (83%)
Библиотека кодирования : x264 core 148 r2623 d5b2374
Настройки программы : cabac=1 / ref=4 / deblock=1:-1:-1 / analyse=0x3:0x133 / me=umh / subme=9 / psy=1 / psy_rd=1.00:0.15 / mixed_ref=1 / me_range=24 / chroma_me=1 / trellis=2 / 8x8dct=1 / cqm=0 / deadzone=21,11 / fast_pskip=1 / chroma_qp_offset=-3 / threads=32 / lookahead_threads=5 / sliced_threads=0 / nr=150 / decimate=1 / interlaced=0 / bluray_compat=0 / constrained_intra=0 / bframes=8 / b_pyramid=2 / b_adapt=2 / b_bias=0 / direct=3 / weightb=1 / open_gop=0 / weightp=2 / keyint=120 / keyint_min=61 / scenecut=0 / intra_refresh=0 / rc_lookahead=120 / rc=crf / mbtree=1 / crf=18.0 / qcomp=0.60 / qpmin=0 / qpmax=69 / qpstep=4 / vbv_maxrate=15000 / vbv_bufsize=31250 / crf_max=0.0 / nal_hrd=vbr / filler=0 / ip_ratio=1.40 / aq=3:1.00
Язык : English
Default : Да
Forced : Нет
Цветовой диапазон : Limited
Основные цвета : BT.709
Характеристики трансфера : BT.709
Коэффициенты матрицы : BT.709

Аудио #1
Идентификатор : 2
Формат : AC-3
Формат/Информация : Audio Coding 3
Идентификатор кодека : A_AC3
Продолжительность : 1 ч. 33 м.
Вид битрейта : Постоянный
Битрейт : 384 Кбит/сек
Каналы : 6 каналов
Расположение каналов : Front: L C R, Side: L R, LFE
Частота : 48,0 КГц
Частота кадров : 31,250 кадров/сек (1536 SPF)
Битовая глубина : 16 бит
Метод сжатия : С потерями
Размер потока : 257 Мбайт (2%)
Заголовок : MVO | DVD5
Язык : Russian
По умолчанию : Да
Принудительно : Нет

Аудио #2
Идентификатор : 3
Формат : AC-3
Формат/Информация : Audio Coding 3
Идентификатор кодека : A_AC3
Продолжительность : 1 ч. 33 м.
Вид битрейта : Постоянный
Битрейт : 448 Кбит/сек
Каналы : 6 каналов
Расположение каналов : Front: L C R, Side: L R, LFE
Частота : 48,0 КГц
Частота кадров : 31,250 кадров/сек (1536 SPF)
Битовая глубина : 16 бит
Метод сжатия : С потерями
Размер потока : 300 Мбайт (3%)
Заголовок : DVO | П. Гланц...
Язык : Russian
По умолчанию : Нет
Принудительно : Нет

Аудио #3
Идентификатор : 4
Формат : AC-3
Формат/Информация : Audio Coding 3
Идентификатор кодека : A_AC3
Продолжительность : 1 ч. 33 м.
Вид битрейта : Постоянный
Битрейт : 192 Кбит/сек
Каналы : 2 канала
Расположение каналов : Front: L R
Частота : 48,0 КГц
Частота кадров : 31,250 кадров/сек (1536 SPF)
Битовая глубина : 16 бит
Метод сжатия : С потерями
Размер потока : 129 Мбайт (1%)
Заголовок : MVO | VHS, Видеосервис
Язык : Russian
По умолчанию : Нет
Принудительно : Нет

Аудио #4
Идентификатор : 5
Формат : AC-3
Формат/Информация : Audio Coding 3
Идентификатор кодека : A_AC3
Продолжительность : 1 ч. 33 м.
Вид битрейта : Постоянный
Битрейт : 192 Кбит/сек
Каналы : 2 канала
Расположение каналов : Front: L R
Частота : 48,0 КГц
Частота кадров : 31,250 кадров/сек (1536 SPF)
Битовая глубина : 16 бит
Метод сжатия : С потерями
Размер потока : 129 Мбайт (1%)
Заголовок : MVO | 1 канал, iTunes
Язык : Russian
По умолчанию : Нет
Принудительно : Нет

Аудио #5
Идентификатор : 6
Формат : AC-3
Формат/Информация : Audio Coding 3
Идентификатор кодека : A_AC3
Продолжительность : 1 ч. 33 м.
Вид битрейта : Постоянный
Битрейт : 192 Кбит/сек
Каналы : 2 канала
Расположение каналов : Front: L R
Частота : 48,0 КГц
Частота кадров : 31,250 кадров/сек (1536 SPF)
Битовая глубина : 16 бит
Метод сжатия : С потерями
Размер потока : 129 Мбайт (1%)
Заголовок : AVO | С. Визгунов
Язык : Russian
По умолчанию : Нет
Принудительно : Нет

Аудио #6
Идентификатор : 7
Формат : AC-3
Формат/Информация : Audio Coding 3
Идентификатор кодека : A_AC3
Продолжительность : 1 ч. 33 м.
Вид битрейта : Постоянный
Битрейт : 448 Кбит/сек
Каналы : 6 каналов
Расположение каналов : Front: L C R, Side: L R, LFE
Частота : 48,0 КГц
Частота кадров : 31,250 кадров/сек (1536 SPF)
Битовая глубина : 16 бит
Метод сжатия : С потерями
Размер потока : 300 Мбайт (3%)
Заголовок : DVO | 1+1
Язык : Ukrainian
По умолчанию : Нет
Принудительно : Нет

Аудио #7
Идентификатор : 8
Формат : E-AC-3
Формат/Информация : Enhanced Audio Coding 3
Идентификатор кодека : A_EAC3
Продолжительность : 1 ч. 33 м.
Вид битрейта : Постоянный
Битрейт : 640 Кбит/сек
Каналы : 6 каналов
Расположение каналов : Front: L C R, Side: L R, LFE
Частота : 48,0 КГц
Частота кадров : 187,500 кадров/сек (256 SPF)
Метод сжатия : С потерями
Размер потока : 429 Мбайт (4%)
Заголовок : Original
Язык : English
По умолчанию : Нет
Принудительно : Нет

Текст #1
Идентификатор : 9
Формат : UTF-8
Идентификатор кодека : S_TEXT/UTF8
Идентификатор кодека/Информация : UTF-8 Plain Text
Заголовок : На надписи, iTunes
Язык : Russian
По умолчанию : Нет
Принудительно : Нет

Текст #2
Идентификатор : 10
Формат : UTF-8
Идентификатор кодека : S_TEXT/UTF8
Идентификатор кодека/Информация : UTF-8 Plain Text
Язык : Russian
По умолчанию : Нет
Принудительно : Нет

Текст #3
Идентификатор : 11
Формат : UTF-8
Идентификатор кодека : S_TEXT/UTF8
Идентификатор кодека/Информация : UTF-8 Plain Text
Язык : Ukrainian
По умолчанию : Нет
Принудительно : Нет

Текст #4
Идентификатор : 12
Формат : UTF-8
Идентификатор кодека : S_TEXT/UTF8
Идентификатор кодека/Информация : UTF-8 Plain Text
Язык : English
По умолчанию : Нет
Принудительно : Нет

Текст #5
Идентификатор : 13
Формат : UTF-8
Идентификатор кодека : S_TEXT/UTF8
Идентификатор кодека/Информация : UTF-8 Plain Text
Заголовок : SDH
Язык : English
По умолчанию : Нет
Принудительно : Нет

Текст #6
Идентификатор : 14
Формат : UTF-8
Идентификатор кодека : S_TEXT/UTF8
Идентификатор кодека/Информация : UTF-8 Plain Text
Язык : German
По умолчанию : Нет
Принудительно : Нет

Меню
00:00:00.000 : en:Opening Credits / K.O.K. Party
00:06:41.965 : en:Framed And Banished
00:15:57.186 : en:From K.O.K. To D.O.G.
00:27:02.184 : en:It's Tough Being A Girl
00:36:33.421 : en:Good Girls Don't
00:40:14.676 : en:Leaming New Study Skills
00:55:51.745 : en:Reality Check
01:02:31.678 : en:Powder-puff Football
01:11:40.522 : en:The K.O.K.-Tail Cruise
01:23:26.728 : en:A New Attitude / End Credits
• Исходник видео WEB-DL Amazon.
pb.wtf



Скачать Парни из женской общаги через торрент https://b.radikal.ru/b21/1806/ba/6e8043cf3e35.png Скачать фильм Парни из женской общаги через торрент бесплантно в хорошем качестве О фильме: Друзья-студенты Дэйв, Адам и Дуфер не раз попадпли в переплет, но на этот раз судьба угостила их ну очень сурово, их вышибли из ... 10 10 3
Торрент: Зарегистрирован [2019-07-21 20:48] · скачан: 34 раз
Статус: √ проверено
Размер: 10.86 GB
Как cкачать? Как скачать Парни из женской общаги через торрент | qTorrent

28-11-2019 20:33  

Отключить всю рекламу на сайте

    Дорогой пользователь! Огромная просьба, поблагодарите релизера, оцените раздачу и оставьте свои комментарий, если Вы скачали Парни из женской общаги через торрент бесплатно! Внесите свою лепту в развитие PiratBit!
    Комментировать посты могут только пользователи прошедшие не сложную регистрацию
    Показать сообщения:    

    Парни из женской общаги через торрент
    Скачать бесплатно Парни из женской общаги
    Парни из женской общаги скачать торрент
    Парни из женской общаги смотреть онлайн
    Cкачать фильм Парни из женской общаги бесплатно
    Парни из женской общаги скачать торрент в хорошем качестве
    Парни из женской общаги смотреть онлайн бесплатно в хорошем качестве


    Вы не можете начинать темы
    Вы не можете отвечать на сообщения
    Вы не можете редактировать свои сообщения
    Вы не можете удалять свои сообщения
    Вы не можете голосовать в опросах
    Вы не можете прикреплять файлы к сообщениям
    Вы можете скачивать файлы