новый адрес
Ссылка на приватное зеркало всего за 1$. Внимание количество ограничено!!!

iTunes

1+1

iTunes

мы

WEB-DL

1

iTunes

Чернобыль

iTunes

Ральф против интернета

Лицензия

ПШазам

Лицензия

Оно 2

Лицензия

30
pack

Вам бонус

ВАЖНО

!!Акция!!

Alien_RageХит недели

RePack

Resident Evil 21

ИГРА 18+

pack

RePack

jed

!!Акция!!

Alien_Rage

RePack

fifa19

RePack

Assassins Creed: Odyssey

RePack

NEED FOR SPEED™ PAYBACK

3 сезон

9 сезон

Бесстыжие 9 сезон

Все сериалы

все сериалы на PB.wtf

RePack

FAR CRY 5
Ребята, катастрофически не хватает 1900р. для оплаты серверов за Октябрь (всвязи с блокировками трафик упал в 3 раза), 1-2р., выручайте.
  

Призрак свободы / Le Fantome De La Liberte (Луис Бунюэль) [1974 г., Драма, комедия, BDRip 720p от KORSAR][MVO + DVO] pb.wtf

Призрак свободы через торрент pb.wtf

Размер: 5.77 GB | Добавлен: 4 мес. 16 д. назад | Торрент скачан:0 раз
Скачать  

21-07-2019 20:54 Призрак свободы Скачать торрент  

Название: Призрак свободы
Оригинальное название: Le Fantome De La Liberte
Год выпуска: 1974
Жанр: Драма, комедия
Режиссер: Луис Бунюэль
В ролях: Адриана Асти, Жюльен Берто, Жан-Клод Бриали, Адольфо Чели, Поль Франкёр, Микаэль Лонсдаль, Пьер Магелон, Франсуа Мэстр, Мишель Пикколи

О фильме: Серия сюрреалистических эпизодов, на первый взгляд не связанных между собой. Буржуазная пара рассматривает фотографии парижских памятников и находит их порнографическими. На ужине при свечах гости усаживаются на унитазы вместо стульев. Луис Бунюэль выстраивает цепочку из персонажей, передающих друг другу "сюжет" наподобие эстафетной палочки. Мишенью фильма становятся ханжество, церковь, армия. В мире Бунюэля все переворачивается с ног на голову, и между эпизодами возникают картины репрессий с криком за кадром «Долой свободу!». Смотрите этот фильм, чтобы понять ту главную идею, которая руководила Бунюэлем на протяжении его творческого пути. Свобода - это всего лишь тень, отсвет, призрак того, что мы обречены искать всю жизнь.

rating

Продолжительность: 01:43:48
Выпущено: Франция, Италия, Euro International Film (EIA), Greenwich Film Productions
Перевод: Профессиональный многоголосый, профессиональный двухголосый

Качество: BDRip 720p
Формат: MKV
Видео: MPEG-4 AVC, 7183 Кбит/сек, 1204x718, 24,000 кадра/сек
Аудио #1: AC3, 1 ch, 192 Кбит/сек | Русский, профессиональный (двухголосый закадровый) НТВ+
Аудио #2: AC3, 2 ch, 192 Кбит/сек | Русский, профессиональный (многоголосый закадровый) Петербург 5 канал
Аудио #3: AC3, 2 ch, 384 Кбит/сек | Французский, оригинал
Субтитры: Русские, английские
Навигация по главам: Есть

Релиз от:
x264 [info]: frame I:711 Avg QP:16.14 size:148073
x264 [info]: frame P:31786 Avg QP:18.59 size: 74903
x264 [info]: frame B:116977 Avg QP:20.08 size: 26561
-----------------------------------------------------
Общее
Уникальный идентификатор : 185542969229885364545064509297608325509 (0x8B9646AAA01424328A179E0E8D0B7985)
Полное имя : Призрак.свободы.1974.BDRip.720p.KORSAR.mkv
Формат : Matroska
Версия формата : Version 2
Размер файла : 5,77 Гбайт
Продолжительность : 1 ч. 43 м.
Общий поток : 7955 Кбит/сек
Дата кодирования : UTC 2018-05-17 18:10:08
Программа кодирования : mkvmerge v5.8.0 ('No Sleep / Pillow') built on Sep 2 2012 15:37:04
Библиотека кодирования : libebml v1.2.3 + libmatroska v1.3.0

Видео
Идентификатор : 1
Формат : AVC
Формат/Информация : Advanced Video Codec
Профиль формата : High@L4.1
Настройки формата : CABAC / 9 Ref Frames
Параметр CABAC формата : Да
Параметр RefFrames формата : 9 кадров
Идентификатор кодека : V_MPEG4/ISO/AVC
Продолжительность : 1 ч. 43 м.
Битрейт : 7183 Кбит/сек
Ширина : 1204 пикселя
Высота : 718 пикселей
Соотношение сторон : 5:3
Режим частоты кадров : Постоянный
Частота кадров : 24,000 кадра/сек
Цветовое пространство : YUV
Субдискретизация насыщенности : 4:2:0
Битовая глубина : 8 бит
Тип развёртки : Прогрессивная
Бит/(Пиксели*Кадры) : 0.346
Размер потока : 5,10 Гбайт (88%)
Заголовок : RIP | MZMA
Библиотека кодирования : x264 core 152 r2851kMod ba24899
Настройки программы : cabac=1 / ref=9 / deblock=1:-2:-2 / analyse=0x3:0x113 / me=umh / subme=11 / psy=1 / fade_compensate=0.00 / psy_rd=1.00:0.00 / mixed_ref=1 / me_range=48 / chroma_me=1 / trellis=2 / 8x8dct=1 / cqm=0 / deadzone=21,11 / fast_pskip=0 / chroma_qp_offset=-2 / threads=6 / lookahead_threads=1 / sliced_threads=0 / nr=0 / decimate=0 / interlaced=0 / bluray_compat=0 / constrained_intra=0 / bframes=16 / b_pyramid=2 / b_adapt=2 / b_bias=0 / direct=3 / weightb=1 / open_gop=0 / weightp=2 / keyint=240 / keyint_min=24 / scenecut=40 / intra_refresh=0 / rc_lookahead=40 / rc=2pass / mbtree=0 / bitrate=7183 / ratetol=1.0 / qcomp=0.60 / qpmin=0 / qpmax=69 / qpstep=4 / cplxblur=20.0 / qblur=0.5 / vbv_maxrate=50000 / vbv_bufsize=62500 / nal_hrd=none / filler=0 / ip_ratio=1.40 / pb_ratio=1.30 / aq=3:0.90
Язык : French
Default : Да
Forced : Нет
Цветовой диапазон : Limited
Основные цвета : BT.709
Характеристики трансфера : BT.709
Коэффициенты матрицы : BT.709

Аудио #1
Идентификатор : 2
Формат : AC-3
Формат/Информация : Audio Coding 3
Идентификатор кодека : A_AC3
Продолжительность : 1 ч. 43 м.
Вид битрейта : Постоянный
Битрейт : 192 Кбит/сек
Каналы : 1 канал
Расположение каналов : Front: C
Частота : 48,0 КГц
Частота кадров : 31,250 кадров/сек (1536 SPF)
Битовая глубина : 16 бит
Метод сжатия : С потерями
Размер потока : 143 Мбайт (2%)
Заголовок : DVO | НТВ+
Язык : Russian
По умолчанию : Да
Принудительно : Нет

Аудио #2
Идентификатор : 3
Формат : AC-3
Формат/Информация : Audio Coding 3
Идентификатор кодека : A_AC3
Продолжительность : 1 ч. 43 м.
Вид битрейта : Постоянный
Битрейт : 192 Кбит/сек
Каналы : 2 канала
Расположение каналов : Front: L R
Частота : 48,0 КГц
Частота кадров : 31,250 кадров/сек (1536 SPF)
Битовая глубина : 16 бит
Метод сжатия : С потерями
Размер потока : 143 Мбайт (2%)
Заголовок : MVO | Петербург 5 канал
Язык : Russian
По умолчанию : Нет
Принудительно : Нет

Аудио #3
Идентификатор : 4
Формат : AC-3
Формат/Информация : Audio Coding 3
Идентификатор кодека : A_AC3
Продолжительность : 1 ч. 43 м.
Вид битрейта : Постоянный
Битрейт : 384 Кбит/сек
Каналы : 2 канала
Расположение каналов : Front: L R
Частота : 48,0 КГц
Частота кадров : 31,250 кадров/сек (1536 SPF)
Битовая глубина : 16 бит
Метод сжатия : С потерями
Размер потока : 285 Мбайт (5%)
Заголовок : Original
Язык : French
По умолчанию : Нет
Принудительно : Нет

Текст #1
Идентификатор : 5
Формат : UTF-8
Идентификатор кодека : S_TEXT/UTF8
Идентификатор кодека/Информация : UTF-8 Plain Text
Язык : Russian
По умолчанию : Нет
Принудительно : Нет

Текст #2
Идентификатор : 6
Формат : UTF-8
Идентификатор кодека : S_TEXT/UTF8
Идентификатор кодека/Информация : UTF-8 Plain Text
Язык : English
По умолчанию : Нет
Принудительно : Нет

Меню
00:00:00.000 : en:Chapter 1
00:07:56.000 : en:Chapter 2
00:17:06.208 : en:Chapter 3
00:23:54.333 : en:Chapter 4
00:29:07.417 : en:Chapter 5
00:45:18.375 : en:Chapter 6
00:54:25.583 : en:Chapter 7
01:00:28.500 : en:Chapter 8
01:06:06.458 : en:Chapter 9
01:14:29.042 : en:Chapter 10
01:25:41.750 : en:Chapter 11
01:33:21.667 : en:Chapter 12
pb.wtf



Скачать Призрак свободы через торрент https://a.radikal.ru/a06/1805/53/e6a1ce1a3efe.png Скачать фильм Призрак свободы через торрент бесплантно в хорошем качестве О фильме: Серия сюрреалистических эпизодов, на первый взгляд не связанных между собой. Буржуазная пара рассматривает фотографии парижских ... 10 10 1
Info! Золотая раздача, скачанное не засчитывается.
Торрент: Зарегистрирован [2019-07-21 20:54] · скачан: 0 раз
Статус: √ проверено
Размер: 5.77 GB
Как cкачать? Как скачать Призрак свободы через торрент | qTorrent

28-11-2019 20:33  

Отключить всю рекламу на сайте

22-07-2019 00:17 Призрак свободы Скачать торрент  

Топик был перенесен из форума Классика зарубежного кино в форум Арт-хаус и авторское кино


bober100pb.wtf



    Дорогой пользователь! Огромная просьба, поблагодарите релизера, оцените раздачу и оставьте свои комментарий, если Вы скачали Призрак свободы через торрент бесплатно! Внесите свою лепту в развитие PiratBit!
    Комментировать посты могут только пользователи прошедшие не сложную регистрацию
    Показать сообщения:    

    Призрак свободы через торрент
    Скачать бесплатно Призрак свободы
    Призрак свободы скачать торрент
    Призрак свободы смотреть онлайн
    Cкачать фильм Призрак свободы бесплатно
    Призрак свободы скачать торрент в хорошем качестве
    Призрак свободы смотреть онлайн бесплатно в хорошем качестве


    Вы не можете начинать темы
    Вы не можете отвечать на сообщения
    Вы не можете редактировать свои сообщения
    Вы не можете удалять свои сообщения
    Вы не можете голосовать в опросах
    Вы не можете прикреплять файлы к сообщениям
    Вы можете скачивать файлы