новый адрес
Ссылка на приватное зеркало всего за 1$. Внимание количество ограничено!!!

iTunes

1+1

iTunes

мы

WEB-DL

1

iTunes

Чернобыль

iTunes

Ральф против интернета

Лицензия

ПШазам

Лицензия

Оно 2

Лицензия

30
pack

Вам бонус

ВАЖНО

!!Акция!!

Alien_RageХит недели

RePack

Resident Evil 21

ИГРА 18+

pack

RePack

jed

!!Акция!!

Alien_Rage

RePack

fifa19

RePack

Assassins Creed: Odyssey

RePack

NEED FOR SPEED™ PAYBACK

3 сезон

9 сезон

Бесстыжие 9 сезон

Все сериалы

все сериалы на PB.wtf

RePack

FAR CRY 5
Ребята, катастрофически не хватает 1900р. для оплаты серверов за Октябрь (всвязи с блокировками трафик упал в 3 раза), 1-2р., выручайте.
  

Проклятие плачущей / The Curse of La Llorona (Майкл Чавес) [2019, ужасы, триллер, детектив, BDRip-AVC] DUB [Лицензия] pb.wtf

Проклятие плачущей через торрент pb.wtf

Раздают: 1 [ 0 KB/s ]
Размер: 1.77 GB | Добавлен: 4 мес. 10 д. назад | Торрент скачан:43 раза
Скачать  

22-07-2019 02:50 Проклятие плачущей Скачать торрент  

Проклятие плачущей / The Curse of La Llorona«Ей нужны ваши дети»
Год выпуска: 2019
Страна: США
Жанр: ужасы, триллер, детектив
Продолжительность: 01:33:14
Перевод: Дублированный | Лицензия
Субтитры: Русские (форс., полные), Английские (полные, SDH)

Режиссер: Майкл Чавес

rating

В ролях:

Линда Карделлини (Anna Tate-Garcia), Роман Кристу (Chris), Джейни-Линн Кинчен (Samantha), Рэймонд Крус (Rafael Olvera), Марисоль Рамирез (La Llorona), Патрисия Веласкес (Patricia Alvarez), Шон Патрик Томас (Detective Cooper), Тони Амендола (Father Perez), Ирен Кэн (Donna), Оливер Александр (Carlos), Эйден Левандовски (Tomas), Пол Родригес мл. (Officer Claro)
Описание: Ла Йорона. Плачущая женщина. Вселяющий ужас призрак, затерянный между Раем и Адом и загнанный в ужасную ловушку судьбы, запечатанную его собственной рукой. Простое упоминание ее имени сеет страх по всему миру уже многие поколения. Еще при жизни женщина утопила своих детей в порыве яростной ревности, бросившись в бушующую реку вслед за ними, рыдая от боли и отчаяния. Теперь ее слезы вечны и несут смерть. Тот, кто слышит ее предсмертный крик в ночи, обречен. Ла Йорона крадется в тени и охотится на детей, отчаянно пытаясь восполнить утрату собственных. Проходят столетия, она становится все более ненасытной... а её методы все более ужасными.

Качество: BDRip-AVC
Формат: MKV

Видео: 1024x426 (2.40:1), 23,976 fps, x264 ~1 824 kbps avg, 0.174 bit/pixel
Аудио#1: 48 kHz, AC3 Dolby Digital, 3/2 (L,C,R,l,r) + LFE ch, ~448.00 kbps avg | RUS (Лицензия) |
Аудио#2: 48 kHz, AC3 Dolby Digital, 3/2 (L,C,R,l,r) + LFE ch, ~448.00 kbps avg | ENG |
скриншот  скриншот  скриншот  скриншот  скриншот  

Общее
Уникальный идентификатор : 110426178831062752245327671854597378443 (0x53134EF648C8AA39487C9AA48EDF918B)
Полное имя : F:\OlLanDGroup\The.Curse.Of.La.Llorona.2019.BDRip(AVC).OlLanDGroup.mkv
Формат : Matroska
Версия формата : Version 4 / Version 2
Размер файла : 1,77 Гбайт
Продолжительность : 1 ч. 33 м.
Общий поток : 2722 Кбит/сек
Название фильма : The.Curse.Of.La.Llorona.2019 #TorpedoUK#
Дата кодирования : UTC 2019-08-02 02:34:54
Программа кодирования : mkvmerge v29.0.0 ('Like It Or Not') 64-bit
Библиотека кодирования : libebml v1.3.6 + libmatroska v1.4.9

Видео
Идентификатор : 1
Формат : AVC
Формат/Информация : Advanced Video Codec
Профиль формата : High@L4.1
Параметр CABAC формата : Да
Параметр ReFrames формата : 10 кадров
Идентификатор кодека : V_MPEG4/ISO/AVC
Продолжительность : 1 ч. 33 м.
Битрейт : 1824 Кбит/сек
Ширина : 1024 пикселя
Высота : 426 пикселей
Соотношение сторон : 2,40:1
Режим частоты кадров : Постоянный
Частота кадров : 23,976 (24000/1001) кадра/сек
Цветовое пространство : YUV
Субдискретизация насыщенности : 4:2:0
Битовая глубина : 8 бит
Тип развёртки : Прогрессивная
Бит/(Пиксели*Кадры) : 0.174
Размер потока : 1,19 Гбайт (67%)
Библиотека кодирования : x264 core 146 r2538 121396c
Настройки программы : cabac=1 / ref=10 / deblock=1:-3:-3 / analyse=0x3:0x113 / me=umh / subme=11 / psy=1 / psy_rd=0.98:0.04 / mixed_ref=1 / me_range=48 / chroma_me=1 / trellis=2 / 8x8dct=1 / cqm=0 / deadzone=21,11 / fast_pskip=1 / chroma_qp_offset=-3 / threads=6 / lookahead_threads=1 / sliced_threads=0 / nr=0 / decimate=1 / interlaced=0 / bluray_compat=0 / constrained_intra=0 / bframes=11 / b_pyramid=2 / b_adapt=2 / b_bias=0 / direct=3 / weightb=1 / open_gop=0 / weightp=2 / keyint=240 / keyint_min=23 / scenecut=40 / intra_refresh=0 / rc_lookahead=40 / rc=2pass / mbtree=0 / bitrate=1824 / ratetol=1.0 / qcomp=0.60 / qpmin=0 / qpmax=69 / qpstep=4 / cplxblur=20.0 / qblur=0.5 / vbv_maxrate=50000 / vbv_bufsize=62500 / nal_hrd=none / filler=0 / ip_ratio=1.40 / pb_ratio=1.30 / aq=1:1.00
Язык : English
Default : Да
Forced : Нет

Аудио #1
Идентификатор : 2
Формат : AC-3
Формат/Информация : Audio Coding 3
Расширение режима : CM (complete main)
Параметр Endianness формата : Big
Идентификатор кодека : A_AC3
Продолжительность : 1 ч. 33 м.
Вид битрейта : Постоянный
Битрейт : 448 Кбит/сек
Каналы : 6 каналов
Расположение каналов : Front: L C R, Side: L R, LFE
Частота : 48,0 КГц
Частота кадров : 31,250 кадров/сек (1536 spf)
Битовая глубина : 16 бит
Метод сжатия : С потерями
Размер потока : 299 Мбайт (16%)
Заголовок : DUB [License]
Язык : Russian
Default : Да
Forced : Нет

Аудио #2
Идентификатор : 3
Формат : AC-3
Формат/Информация : Audio Coding 3
Расширение режима : CM (complete main)
Параметр Endianness формата : Big
Идентификатор кодека : A_AC3
Продолжительность : 1 ч. 33 м.
Вид битрейта : Постоянный
Битрейт : 448 Кбит/сек
Каналы : 6 каналов
Расположение каналов : Front: L C R, Side: L R, LFE
Частота : 48,0 КГц
Частота кадров : 31,250 кадров/сек (1536 spf)
Битовая глубина : 16 бит
Метод сжатия : С потерями
Размер потока : 299 Мбайт (16%)
Заголовок : [Original]
Язык : English
Default : Нет
Forced : Нет

Текст #1
Идентификатор : 4
Формат : UTF-8
Идентификатор кодека : S_TEXT/UTF8
Идентификатор кодека/Информация : UTF-8 Plain Text
Продолжительность : 1 ч. 32 м.
Битрейт : 1 бит/сек
Count of elements : 14
Размер потока : 832 байт (0%)
Заголовок : Forced
Язык : Russian
Default : Да
Forced : Нет

Текст #2
Идентификатор : 5
Формат : UTF-8
Идентификатор кодека : S_TEXT/UTF8
Идентификатор кодека/Информация : UTF-8 Plain Text
Продолжительность : 1 ч. 32 м.
Битрейт : 43 бит/сек
Count of elements : 685
Размер потока : 29,6 Кбайт (0%)
Заголовок : Full
Язык : Russian
Default : Нет
Forced : Нет

Текст #3
Идентификатор : 6
Формат : UTF-8
Идентификатор кодека : S_TEXT/UTF8
Идентификатор кодека/Информация : UTF-8 Plain Text
Продолжительность : 1 ч. 26 м.
Битрейт : 27 бит/сек
Count of elements : 796
Размер потока : 17,4 Кбайт (0%)
Заголовок : Full
Язык : English
Default : Нет
Forced : Нет

Текст #4
Идентификатор : 7
Формат : UTF-8
Идентификатор кодека : S_TEXT/UTF8
Идентификатор кодека/Информация : UTF-8 Plain Text
Продолжительность : 1 ч. 32 м.
Битрейт : 33 бит/сек
Count of elements : 1055
Размер потока : 22,8 Кбайт (0%)
Заголовок : SDH
Язык : English
Default : Нет
Forced : Нет

Меню
00:00:00.000 : en:Chapter 01
00:09:24.355 : en:Chapter 02
00:18:21.266 : en:Chapter 03
00:28:09.104 : en:Chapter 04
00:38:14.208 : en:Chapter 05
00:48:09.595 : en:Chapter 06
00:58:07.317 : en:Chapter 07
01:09:04.557 : en:Chapter 08
01:18:15.148 : en:Chapter 09
01:26:30.727 : en:Chapter 10
01:33:13.879 : en:Chapter 11

pb.wtf



Скачать Проклятие плачущей через торрент https://i86.fastpic.ru/big/2019/0722/df/34cc9eadfbdb426051d351f95ad5c7df.png Скачать фильм Проклятие плачущей через торрент бесплантно в хорошем качестве Описание: Ла Йорона. Плачущая женщина. Вселяющий ужас призрак, затерянный между Раем и Адом и загнанный в ужасную ловушку судьбы, ... 9.3 10 9
Торрент: Зарегистрирован [2019-08-02 02:48] · скачан: 43 раз
Статус: √ проверено
Размер: 1.77 GB
Как cкачать? Как скачать Проклятие плачущей через торрент | qTorrent

% Раздел Тема Автор DL S | L
Фильмы (HD 720p, 1080p) (48-60 fps) [ 7.81 GB ] Проклятие плачущей / The Curse of La Llorona [2019 BDRip 720p 60 fps] sheker187 Скачать
1 | 0
Фильмы 2019 [DVDrip, WEB-DLRip, HDrip] (DUB, MVO) [ 2.07 GB ] Проклятие плачущей / The Curse of La Llorona [2019 BDRip] DUB [] bober100 Скачать
2 | 0
Фильмы [HD 720p, 1080p] (Хороший звук DUB, MVO) [ 7.18 GB ] Проклятие плачущей / The Curse of La Llorona [2019 BDRip 1080p] DUB [] bober100 Скачать
3 | 0
Фильмы [HD 720p, 1080p] (Хороший звук DUB, MVO) [ 3.51 GB ] Проклятие плачущей / The Curse of La Llorona [2019 BDRip 720p] DUB [] bober100 Скачать
3 | 0
Фильмы (Blu-ray, BD-Remux, HDDVD) [ 30.85 GB ] Проклятие плачущей / The Curse of La Llorona [2019 Blu-ray EUR 1080p] DUB [] bober100 Скачать
1 | 0
Ultra HD (UHD: 2K, 4K, 8K) — видео сверхвысокой чёткости [ 14.04 GB ] Проклятие плачущей / The Curse of La Llorona [2019 UHD WEBRip 2160p] bober100 Скачать
1 | 0
Фильмы 2019 [DVDrip, WEB-DLRip, HDrip] (DUB, MVO) [ 1.46 GB ] Проклятие плачущей / The Curse of La Llorona [2019 BDRip] - [] Twi7ter Скачать
17 | 1

28-11-2019 20:33  

Отключить всю рекламу на сайте

    Дорогой пользователь! Огромная просьба, поблагодарите релизера, оцените раздачу и оставьте свои комментарий, если Вы скачали Проклятие плачущей через торрент бесплатно! Внесите свою лепту в развитие PiratBit!
    Комментировать посты могут только пользователи прошедшие не сложную регистрацию
    Показать сообщения:    

    Проклятие плачущей через торрент
    Скачать бесплатно Проклятие плачущей
    Проклятие плачущей скачать торрент
    Проклятие плачущей смотреть онлайн
    Cкачать фильм Проклятие плачущей бесплатно
    Проклятие плачущей скачать торрент в хорошем качестве
    Проклятие плачущей смотреть онлайн бесплатно в хорошем качестве


    Вы не можете начинать темы
    Вы не можете отвечать на сообщения
    Вы не можете редактировать свои сообщения
    Вы не можете удалять свои сообщения
    Вы не можете голосовать в опросах
    Вы не можете прикреплять файлы к сообщениям
    Вы можете скачивать файлы