новый адрес
Мега распродажа FORZA HORIZON 4 ULTIMATE+ВСЕ DLC+ОНЛАЙН всего за 499р. 349 руб. (супер цена). Внимание количество ограничено!!!

iTunes

1+1

iTunes

мы

iTunes

1

iTunes

Чернобыль

iTunes

Ральф против интернета

Лицензия

ПШазам

Лицензия

Оно 2

Лицензия

30
pack

ВАЖНО

!!Акция!!

Alien_RageХит недели

RePack

Resident Evil 21

ИГРА 18+

pack

RePack

jed

!!Акция!!

Alien_Rage

RePack

fifa19

RePack

Assassins Creed: Odyssey

RePack

NEED FOR SPEED™ PAYBACK

3 сезон

9 сезон

Бесстыжие 9 сезон

Все сериалы

все сериалы на PB.wtf

RePack

FAR CRY 5
Ребята, катастрофически не хватает 1900р. для оплаты серверов за Октябрь (всвязи с блокировками трафик упал в 3 раза), 1-2р., выручайте.
  

Это случилось в милиции (Виллен Азаров) [1963, СССР, драма, DVDRip от AVP Studio] pb.wtf

Это случилось в милиции через торрент pb.wtf

Раздают: 1 [ 0 KB/s ]
Размер: 743 MB | Добавлен: 3 мес. 29 д. назад | Торрент скачан:6 раз
Скачать  

22-07-2019 07:52 Это случилось в милиции Скачать торрент  

Это случилось в милиции
Страна: СССР
Производство: Мосфильм

Жанр: драма
Год выпуска: 1963
Продолжительность: 01:21:54

Перевод: Не требуется
Cубтитры: нет
Оригинальная аудиодорожка: русский

Режиссер: Виллен Азаров

В ролях:
Всеволод Санаев, Марк Бернес, Вячеслав Невинный, Александр Белявский, Олег Голубицкий, Зоя Фёдорова, Вова Дубинский, Валентина Владимирова, Сергей Курилов, Лидия Смирнова, Владимир Муравьёв, Сергей Никоненко...
Об актёрах подробней

Описание:
Николай Васильевич Сазонов всю жизнь работает в милиции. Начальство ценит его за прошлые заслуги, а кадровик считает, что майору пора уходить на пенсию. Новое дело, за которое берется Сазонов, многим сослуживцам кажется безнадежным: он пытается разыскать человека, который пропал во время блокады Ленинграда 18 лет назад…

Источник: DVD5 R5
Качество видео: DVDRip
Формат видео: AVI

Видео: 688х368 (1,85:1), 25,000 fps, XviD ~ 1067 kbps avg, 0.169 bit/pixel
Аудио: 48 kHz, Dolby Digital AC3 2.0, 192 kbps

Раздача от:
Общее
Полное имя : Eto.sluchilos.v.milicii.1963.DVDRip_[New-team]_by_AVP_Studio.avi
Формат : AVI
Формат/Информация : Audio Video Interleave
Размер файла : 743 Мбайт
Продолжительность : 1 ч. 21 м.
Общий поток : 1268 Кбит/сек
Программа кодирования : VirtualDubMod 1.5.10.3 | www.virtualdub-fr.org || (build 2550/release)
Библиотека кодирования : VirtualDubMod build 2550/release

Видео
Идентификатор : 0
Формат : MPEG-4 Visual
Профиль формата : Advanced Simple@L5
Настройки формата : BVOP1 / Custom Matrix
Параметр BVOP формата : 1
Параметр QPel формата : Нет
Параметр GMC формата : Без точки перехода
Параметр матрицы формата : Выборочная
Идентификатор кодека : XVID
Идентификатор кодека/Подсказка : XviD
Продолжительность : 1 ч. 21 м.
Битрейт : 1067 Кбит/сек
Ширина : 688 пикселей
Высота : 368 пикселей
Соотношение сторон : 1,85:1
Частота кадров : 25,000 кадров/сек
Цветовое пространство : YUV
Субдискретизация насыщенности : 4:2:0
Битовая глубина : 8 бит
Тип развёртки : Прогрессивная
Метод сжатия : С потерями
Бит/(Пиксели*Кадры) : 0.169
Размер потока : 625 Мбайт (84%)
Библиотека кодирования : XviD 73

Аудио
Идентификатор : 1
Формат : AC-3
Формат/Информация : Audio Coding 3
Коммерческое название : Dolby Digital
Идентификатор кодека : 2000
Продолжительность : 1 ч. 21 м.
Вид битрейта : Постоянный
Битрейт : 192 Кбит/сек
Каналы : 2 канала
ChannelLayout : L R
Частота : 48,0 КГц
Частота кадров : 31,250 кадров/сек (1536 SPF)
Битовая глубина : 16 бит
Метод сжатия : С потерями
Размер потока : 112 Мбайт (15%)
Выравнивание : Разделение по промежуткам
Продолжительность промежутка : 40 мс. (1,00 видеокадр)
Время предзагрузки промежутка : 500 мс
pb.wtf



Скачать Это случилось в милиции через торрент http://picplus.ru/img/1907/21/0315fec8.png Скачать фильм Это случилось в милиции через торрент бесплантно в хорошем качестве Описание:Николай Васильевич Сазонов всю жизнь работает в милиции. Начальство ценит его за прошлые заслуги, а кадровик считает, что майору ... 10 10 1
Торрент: Зарегистрирован [2019-07-22 07:52] · скачан: 6 раз
Статус: √ проверено
Размер: 743 MB
Как cкачать? Как скачать Это случилось в милиции через торрент | qTorrent

% Раздел Тема Автор DL S | L
Кино СССР [ 744 MB ] Это случилось в милиции [1963 СССР DVDRip-AVC от AVP Studio] AVP Studio Скачать
1 | 0


>> Регистрируемся здесь <<






Отзывы и комментарии о схеме читаем и пишем здесь: ---> Отзывы и комментарии о схеме

Новые благодарочки в телеграм довольных пользователей:
скриншот   скриншот   скриншот   скриншот   скриншот
    Дорогой пользователь! Огромная просьба, поблагодарите релизера, оцените раздачу и оставьте свои комментарий, если Вы скачали Это случилось в милиции через торрент бесплатно! Внесите свою лепту в развитие PiratBit!
    Комментировать посты могут только пользователи прошедшие не сложную регистрацию
    Показать сообщения:    

    Это случилось в милиции через торрент
    Скачать бесплатно Это случилось в милиции
    Это случилось в милиции скачать торрент
    Это случилось в милиции смотреть онлайн
    Cкачать фильм Это случилось в милиции бесплатно
    Это случилось в милиции скачать торрент в хорошем качестве
    Это случилось в милиции смотреть онлайн бесплатно в хорошем качестве


    Вы не можете начинать темы
    Вы не можете отвечать на сообщения
    Вы не можете редактировать свои сообщения
    Вы не можете удалять свои сообщения
    Вы не можете голосовать в опросах
    Вы не можете прикреплять файлы к сообщениям
    Вы можете скачивать файлы