новый адрес
Мега распродажа FORZA HORIZON 4 ULTIMATE+ВСЕ DLC+ОНЛАЙН всего за 499р. 349 руб. (супер цена). Внимание количество ограничено!!!

iTunes

1+1

iTunes

мы

iTunes

1

iTunes

Чернобыль

iTunes

Ральф против интернета

Лицензия

ПШазам

Лицензия

Игра престолов

Лицензия

30
pack

ВАЖНО

!!Акция!!

Alien_RageХит недели

RePack

Resident Evil 21

ИГРА 18+

pack

RePack

Metro:Exodus

!!Акция!!

Alien_Rage

RePack

fifa19

RePack

Assassins Creed: Odyssey

RePack

NEED FOR SPEED™ PAYBACK

3 сезон

9 сезон

Бесстыжие 9 сезон

Все сериалы

все сериалы на PB.wtf

RePack

FAR CRY 5
Ребята, катастрофически не хватает 1900р. для оплаты серверов за Октябрь (всвязи с блокировками трафик упал в 3 раза), 1-2р., выручайте.
  

Это случилось в милиции (Виллен Азаров) [1963, СССР, драма, DVDRip-AVC от AVP Studio] pb.wtf

Это случилось в милиции через торрент pb.wtf

Раздают: 3 [ 0 KB/s ]
Размер: 744 MB | Добавлен: 3 мес. 28 д. назад | Торрент скачан:13 раз
Скачать  

22-07-2019 07:53 Это случилось в милиции Скачать торрент  

Это случилось в милиции
Страна: СССР
Производство: Мосфильм

Жанр: драма
Год выпуска: 1963
Продолжительность: 01:21:54

Перевод: Не требуется
Cубтитры: нет
Оригинальная аудиодорожка: русский

Режиссер: Виллен Азаров

В ролях:
Всеволод Санаев, Марк Бернес, Вячеслав Невинный, Александр Белявский, Олег Голубицкий, Зоя Фёдорова, Вова Дубинский, Валентина Владимирова, Сергей Курилов, Лидия Смирнова, Владимир Муравьёв, Сергей Никоненко...
Об актёрах подробней

Описание:
Николай Васильевич Сазонов всю жизнь работает в милиции. Начальство ценит его за прошлые заслуги, а кадровик считает, что майору пора уходить на пенсию. Новое дело, за которое берется Сазонов, многим сослуживцам кажется безнадежным: он пытается разыскать человека, который пропал во время блокады Ленинграда 18 лет назад…

Источник: DVD5 R5
Качество видео: DVDRip-AVC
Формат видео: MKV

Видео: 688->738х400 (1,85:1), 25,000 fps, H264 ~ 1077 kbps avg, 0.157 bit/pixel
Аудио: 48 kHz, Dolby Digital AC3 2.0, 192 kbps

Раздача от:
Общее
Полное имя : Eto.sluchilos.v.milicii.1963.DVDRip-AVC_[New-team]_by_AVP_Studio.mkv
Формат : Matroska
Версия формата : Version 2
Размер файла : 744 Мбайт
Продолжительность : 1 ч. 21 м.
Общий поток : 1271 Кбит/сек
Дата кодирования : UTC 2019-07-18 15:54:49
Программа кодирования : mkvmerge v6.1.0 ('Old Devil') built on Mar 4 2013 09:10:42
Библиотека кодирования : libebml v1.3.0 + libmatroska v1.4.0

Видео
Идентификатор : 1
Формат : AVC
Формат/Информация : Advanced Video Codec
Профиль формата : High@L4.1
Настройки формата : CABAC / 10 Ref Frames
Параметр CABAC формата : Да
Параметр RefFrames формата : 10 кадров
Идентификатор кодека : V_MPEG4/ISO/AVC
Продолжительность : 1 ч. 21 м.
Битрейт : 1077 Кбит/сек
Ширина : 688 пикселей
Высота : 400 пикселей
Соотношение сторон : 1,85:1
Режим частоты кадров : Постоянный
Частота кадров : 25,000 кадров/сек
Цветовое пространство : YUV
Субдискретизация насыщенности : 4:2:0
Битовая глубина : 8 бит
Тип развёртки : Прогрессивная
Бит/(Пиксели*Кадры) : 0.157
Размер потока : 617 Мбайт (83%)
Библиотека кодирования : x264 core 157 r2932 303c484
Настройки программы : cabac=1 / ref=10 / deblock=1:-2:-1 / analyse=0x3:0x113 / me=umh / subme=10 / psy=1 / psy_rd=1.00:0.00 / mixed_ref=1 / me_range=32 / chroma_me=1 / trellis=2 / 8x8dct=1 / cqm=0 / deadzone=21,11 / fast_pskip=1 / chroma_qp_offset=-2 / threads=6 / lookahead_threads=1 / sliced_threads=0 / nr=0 / decimate=0 / interlaced=0 / bluray_compat=0 / constrained_intra=0 / bframes=8 / b_pyramid=2 / b_adapt=2 / b_bias=0 / direct=3 / weightb=1 / open_gop=0 / weightp=2 / keyint=250 / keyint_min=25 / scenecut=40 / intra_refresh=0 / rc=2pass / mbtree=0 / bitrate=1077 / ratetol=1.0 / qcomp=0.60 / qpmin=0 / qpmax=69 / qpstep=4 / cplxblur=20.0 / qblur=0.5 / ip_ratio=1.40 / pb_ratio=1.30 / aq=1:1.00
Default : Да
Forced : Нет

Аудио
Идентификатор : 2
Формат : AC-3
Формат/Информация : Audio Coding 3
Коммерческое название : Dolby Digital
Идентификатор кодека : A_AC3
Продолжительность : 1 ч. 21 м.
Вид битрейта : Постоянный
Битрейт : 192 Кбит/сек
Каналы : 2 канала
ChannelLayout : L R
Частота : 48,0 КГц
Частота кадров : 31,250 кадров/сек (1536 SPF)
Битовая глубина : 16 бит
Метод сжатия : С потерями
Размер потока : 112 Мбайт (15%)
Default : Да
Forced : Нет
pb.wtf



Скачать Это случилось в милиции через торрент http://picplus.ru/img/1907/21/0315fec8.png Скачать фильм Это случилось в милиции через торрент бесплантно в хорошем качестве Описание:Николай Васильевич Сазонов всю жизнь работает в милиции. Начальство ценит его за прошлые заслуги, а кадровик считает, что майору ... 10 10 1
Торрент: Зарегистрирован [2019-07-22 07:53] · скачан: 13 раз
Статус: √ проверено
Размер: 744 MB
Как cкачать? Как скачать Это случилось в милиции через торрент | qTorrent

% Раздел Тема Автор DL S | L
Кино СССР [ 743 MB ] Это случилось в милиции [1963 СССР DVDRip от AVP Studio] AVP Studio Скачать
3 | 0


>> Регистрируемся здесь <<






Отзывы и комментарии о схеме читаем и пишем здесь: ---> Отзывы и комментарии о схеме

Новые благодарочки в телеграм довольных пользователей:
скриншот   скриншот   скриншот   скриншот   скриншот
    Дорогой пользователь! Огромная просьба, поблагодарите релизера, оцените раздачу и оставьте свои комментарий, если Вы скачали Это случилось в милиции через торрент бесплатно! Внесите свою лепту в развитие PiratBit!
    Комментировать посты могут только пользователи прошедшие не сложную регистрацию
    Показать сообщения:    

    Это случилось в милиции через торрент
    Скачать бесплатно Это случилось в милиции
    Это случилось в милиции скачать торрент
    Это случилось в милиции смотреть онлайн
    Cкачать фильм Это случилось в милиции бесплатно
    Это случилось в милиции скачать торрент в хорошем качестве
    Это случилось в милиции смотреть онлайн бесплатно в хорошем качестве


    Вы не можете начинать темы
    Вы не можете отвечать на сообщения
    Вы не можете редактировать свои сообщения
    Вы не можете удалять свои сообщения
    Вы не можете голосовать в опросах
    Вы не можете прикреплять файлы к сообщениям
    Вы можете скачивать файлы