Ссылка на приватное зеркало всего за 1$. Внимание количество ограничено!!!

iTunes

1+1

iTunes

мы

WEB-DL

1

iTunes

Чернобыль

iTunes

Ральф против интернета

Лицензия

ПШазам

Лицензия

Оно 2

Лицензия

30
pack

Вам бонус

ВАЖНО

!!Акция!!

Alien_RageХит недели

RePack

Resident Evil 21

ИГРА 18+

pack

RePack

jed

!!Акция!!

Alien_Rage

RePack

fifa19

RePack

Assassins Creed: Odyssey

RePack

NEED FOR SPEED™ PAYBACK

3 сезон

9 сезон

Бесстыжие 9 сезон

Все сериалы

все сериалы на PB.wtf

RePack

FAR CRY 5
Ребята, катастрофически не хватает 1900р. для оплаты серверов за Октябрь (всвязи с блокировками трафик упал в 3 раза), 1-2р., выручайте.
  

30 безумных желаний / Then Came You (Питер Хатчингс) [2018, драма, комедия, приключения, BDRip-AVC] DUB [iTunes] +MVO [HDRezka Studio] pb.wtf

30 безумных желаний через торрент pb.wtf

Раздают: 1 [ 0 KB/s ]
Размер: 1.91 GB | Добавлен: 4 мес. 22 д. назад | Торрент скачан:125 раз
Скачать  

22-07-2019 12:18 30 безумных желаний Скачать торрент  

30 безумных желаний / Then Came You
««Жить одним мгновеньем веселей вдвоем»»
Год выпуска: 2018
Страна: США
Жанр: драма, комедия, приключения
Продолжительность: 01:37:17
Перевод:

#1: Дублированный | iTunes
#2: Профессиональный многоголосый | HDRezka Studio

Субтитры: Русские (полные), Английские (полные, SDH)

Режиссер: Питер Хатчингс

rating

В ролях:

Эйса Баттерфилд (Calvin), Мэйси Уильямс (Skye), Нина Добрев (Izzy), Кен Жонг (Officer Al), Тайлер Хэклин (Frank), Дэвид Кокнер (Bob), Пейтон Лист (Ashley), Титус Берджесс (Julian), Соня Уолгер (Claire), Марго Бингхэм (Lucy), Колин Мосс (Greg), Бриана Венскус (Officer Mya)
Описание: Келвин - мнительный ипохондрик, сортирующий багаж в аэропорту, попутно придумывая себе несуществующие болезни. Скай - девушка-праздник, которая видит в жизни только хорошее. Вернее, в том коротком отрезке жизни, что ей остался. За это время она хочет успеть осуществить свои самые безумные желания. Вместе они заново откроют этот мир и самих себя с весьма неожиданных сторон.

Качество: BDRip-AVC
Формат: MKV

Видео: 1024x428 (2.40:1), 23,976 fps, x264 ~1 787 kbps avg, 0.170 bit/pixel
Аудио#1: 48 kHz, AC3 Dolby Digital, 3/2 (L,C,R,l,r) + LFE ch, ~384.00 kbps avg | RUS (iTunes)
Аудио#2: 48 kHz, AC3 Dolby Digital, 2 (L,R) ch, ~192.00 kbps avg | RUS (HDRezka Studio)
Аудио#3: 48 kHz, AC3 Dolby Digital, 3/2 (L,C,R,l,r) + LFE ch, ~448.00 kbps avg | ENG
скриншот  скриншот  скриншот  скриншот  скриншот  

Общее
Уникальный идентификатор : 281737223087703814459284015307899949161 (0xD3F49D8D6E43DA322C636A59AA325069)
Полное имя : F:OlLanDGroupThen.Came.You.2018.BDRip(AVC).OlLanDGroup.mkv
Формат : Matroska
Версия формата : Version 4 / Version 2
Размер файла : 1,91 Гбайт
Продолжительность : 1 ч. 37 м.
Общий поток : 2810 Кбит/сек
Название фильма : Then Came You 2018 #TorpedoUK#
Дата кодирования : UTC 2019-07-22 11:48:45
Программа кодирования : mkvmerge v29.0.0 ('Like It Or Not') 64-bit
Библиотека кодирования : libebml v1.3.6 + libmatroska v1.4.9

Видео
Идентификатор : 1
Формат : AVC
Формат/Информация : Advanced Video Codec
Профиль формата : High@L4.1
Параметр CABAC формата : Да
Параметр ReFrames формата : 10 кадров
Идентификатор кодека : V_MPEG4/ISO/AVC
Продолжительность : 1 ч. 37 м.
Битрейт : 1787 Кбит/сек
Ширина : 1024 пикселя
Высота : 428 пикселей
Соотношение сторон : 2,40:1
Режим частоты кадров : Постоянный
Частота кадров : 23,976 (24000/1001) кадра/сек
Цветовое пространство : YUV
Субдискретизация насыщенности : 4:2:0
Битовая глубина : 8 бит
Тип развёртки : Прогрессивная
Бит/(Пиксели*Кадры) : 0.170
Размер потока : 1,21 Гбайт (63%)
Библиотека кодирования : x264 core 146 r2538 121396c
Настройки программы : cabac=1 / ref=10 / deblock=1:-3:-3 / analyse=0x3:0x113 / me=umh / subme=11 / psy=1 / psy_rd=1.00:0.03 / mixed_ref=1 / me_range=48 / chroma_me=1 / trellis=2 / 8x8dct=1 / cqm=0 / deadzone=21,11 / fast_pskip=1 / chroma_qp_offset=-3 / threads=6 / lookahead_threads=1 / sliced_threads=0 / nr=0 / decimate=1 / interlaced=0 / bluray_compat=0 / constrained_intra=0 / bframes=11 / b_pyramid=2 / b_adapt=2 / b_bias=0 / direct=3 / weightb=1 / open_gop=0 / weightp=2 / keyint=240 / keyint_min=23 / scenecut=40 / intra_refresh=0 / rc_lookahead=40 / rc=2pass / mbtree=0 / bitrate=1787 / ratetol=1.0 / qcomp=0.60 / qpmin=0 / qpmax=69 / qpstep=4 / cplxblur=20.0 / qblur=0.5 / vbv_maxrate=50000 / vbv_bufsize=62500 / nal_hrd=none / filler=0 / ip_ratio=1.40 / pb_ratio=1.30 / aq=1:1.00
Язык : English
Default : Да
Forced : Нет

Аудио #1
Идентификатор : 2
Формат : AC-3
Формат/Информация : Audio Coding 3
Расширение режима : CM (complete main)
Параметр Endianness формата : Big
Идентификатор кодека : A_AC3
Продолжительность : 1 ч. 37 м.
Вид битрейта : Постоянный
Битрейт : 384 Кбит/сек
Каналы : 6 каналов
Расположение каналов : Front: L C R, Side: L R, LFE
Частота : 48,0 КГц
Частота кадров : 31,250 кадров/сек (1536 spf)
Битовая глубина : 16 бит
Метод сжатия : С потерями
Размер потока : 267 Мбайт (14%)
Заголовок : DUB [iTunes]
Язык : Russian
Default : Да
Forced : Нет

Аудио #2
Идентификатор : 3
Формат : AC-3
Формат/Информация : Audio Coding 3
Расширение режима : CM (complete main)
Параметр Endianness формата : Big
Идентификатор кодека : A_AC3
Продолжительность : 1 ч. 37 м.
Вид битрейта : Постоянный
Битрейт : 192 Кбит/сек
Каналы : 2 канала
Расположение каналов : Front: L R
Частота : 48,0 КГц
Частота кадров : 31,250 кадров/сек (1536 spf)
Битовая глубина : 16 бит
Метод сжатия : С потерями
Размер потока : 134 Мбайт (7%)
Заголовок : MVO [HDRezka Studio]
Язык : Russian
Default : Нет
Forced : Нет

Аудио #3
Идентификатор : 4
Формат : AC-3
Формат/Информация : Audio Coding 3
Расширение режима : CM (complete main)
Параметр Endianness формата : Big
Идентификатор кодека : A_AC3
Продолжительность : 1 ч. 37 м.
Вид битрейта : Постоянный
Битрейт : 448 Кбит/сек
Каналы : 6 каналов
Расположение каналов : Front: L C R, Side: L R, LFE
Частота : 48,0 КГц
Частота кадров : 31,250 кадров/сек (1536 spf)
Битовая глубина : 16 бит
Метод сжатия : С потерями
Размер потока : 312 Мбайт (16%)
Заголовок : [Original]
Язык : English
Default : Нет
Forced : Нет

Текст #1
Идентификатор : 5
Формат : UTF-8
Идентификатор кодека : S_TEXT/UTF8
Идентификатор кодека/Информация : UTF-8 Plain Text
Продолжительность : 1 ч. 33 м.
Битрейт : 81 бит/сек
Count of elements : 1164
Размер потока : 56,1 Кбайт (0%)
Заголовок : Full
Язык : Russian
Default : Нет
Forced : Нет

Текст #2
Идентификатор : 6
Формат : UTF-8
Идентификатор кодека : S_TEXT/UTF8
Идентификатор кодека/Информация : UTF-8 Plain Text
Продолжительность : 1 ч. 26 м.
Битрейт : 51 бит/сек
Count of elements : 1158
Размер потока : 32,7 Кбайт (0%)
Заголовок : Full
Язык : English
Default : Нет
Forced : Нет

Текст #3
Идентификатор : 7
Формат : UTF-8
Идентификатор кодека : S_TEXT/UTF8
Идентификатор кодека/Информация : UTF-8 Plain Text
Продолжительность : 1 ч. 36 м.
Битрейт : 61 бит/сек
Count of elements : 1470
Размер потока : 43,4 Кбайт (0%)
Заголовок : SDH
Язык : English
Default : Нет
Forced : Нет

Меню
00:00:00.000 : en:00:00:00.000
00:09:29.068 : en:00:09:29.068
00:16:20.062 : en:00:16:20.062
00:24:07.946 : en:00:24:07.946
00:31:56.873 : en:00:31:56.873
00:38:57.293 : en:00:38:57.293
00:48:15.351 : en:00:48:15.351
00:56:56.163 : en:00:56:56.163
01:04:34.579 : en:01:04:34.579
01:12:32.848 : en:01:12:32.848
01:20:13.976 : en:01:20:13.976
01:30:58.745 : en:01:30:58.745

pb.wtf



Скачать 30 безумных желаний через торрент https://i90.fastpic.ru/big/2019/0722/d6/a4877602a0cf4a30c9603ca98dda7ed6.png Скачать фильм 30 безумных желаний через торрент бесплантно в хорошем качестве Описание: Келвин - мнительный ипохондрик, сортирующий багаж в аэропорту, попутно придумывая себе несуществующие болезни. Скай - ... 10 10 2
Торрент: Зарегистрирован [2019-07-22 12:18] · скачан: 125 раз
Статус: √ проверено
Размер: 1.91 GB
Как cкачать? Как скачать 30 безумных желаний через торрент | qTorrent

% Раздел Тема Автор DL S | L
Фильмы 2018 [DVDrip, WEB-DLRip, HDrip] (DUB, MVO) [ 1.42 GB ] 30 безумных желаний / Then Came You [2018 BDRip] - Twi7ter Скачать
30 | 0
Фильмы [HD 720p, 1080p] (Хороший звук DUB, MVO) [ 3.69 GB ] 30 безумных желаний / Then Came You [2018 BDRip 720p] +MVO [HDRezka Studio] bober100 Скачать
2 | 0
Фильмы [HD 720p, 1080p] (Хороший звук DUB, MVO) [ 7.68 GB ] 30 безумных желаний / Then Came You [2018 BDRip 1080p] +MVO [HDRezka Studio] bober100 Скачать
5 | 0
Фильмы (Blu-ray, BD-Remux, HDDVD) [ 17.28 GB ] 30 безумных желаний / Then Came You [2018 BDRemux 1080p] +MVO [HDRezka Studio] bober100 Скачать
1 | 0
Фильмы 2018 [DVDrip, WEB-DLRip, HDrip] (DUB, MVO) [ 1.42 GB ] 30 безумных желаний / Then Came You [2018 BDRip] bober100 Скачать
5 | 0

28-11-2019 20:33  

Отключить всю рекламу на сайте

    Дорогой пользователь! Огромная просьба, поблагодарите релизера, оцените раздачу и оставьте свои комментарий, если Вы скачали 30 безумных желаний через торрент бесплатно! Внесите свою лепту в развитие PiratBit!
    Комментировать посты могут только пользователи прошедшие не сложную регистрацию
    Показать сообщения:    

    30 безумных желаний через торрент
    Скачать бесплатно 30 безумных желаний
    30 безумных желаний скачать торрент
    30 безумных желаний смотреть онлайн
    Cкачать фильм 30 безумных желаний бесплатно
    30 безумных желаний скачать торрент в хорошем качестве
    30 безумных желаний смотреть онлайн бесплатно в хорошем качестве


    Вы не можете начинать темы
    Вы не можете отвечать на сообщения
    Вы не можете редактировать свои сообщения
    Вы не можете удалять свои сообщения
    Вы не можете голосовать в опросах
    Вы не можете прикреплять файлы к сообщениям
    Вы можете скачивать файлы