Ссылка на приватное зеркало всего за 1$. Внимание количество ограничено!!!

iTunes

1+1

iTunes

мы

WEB-DL

1

iTunes

Чернобыль

iTunes

Ральф против интернета

Лицензия

ПШазам

Лицензия

Оно 2

Лицензия

30
pack

Вам бонус

ВАЖНО

!!Акция!!

Alien_RageХит недели

RePack

Resident Evil 21

ИГРА 18+

pack

RePack

jed

!!Акция!!

Alien_Rage

RePack

fifa19

RePack

Assassins Creed: Odyssey

RePack

NEED FOR SPEED™ PAYBACK

3 сезон

9 сезон

Бесстыжие 9 сезон

Все сериалы

все сериалы на PB.wtf

RePack

FAR CRY 5
Ребята, катастрофически не хватает 1900р. для оплаты серверов за Октябрь (всвязи с блокировками трафик упал в 3 раза), 1-2р., выручайте.
  

Покемон. Детектив Пикачу / Pokémon Detective Pikachu (Роб Леттерман) [2019, фантастика, фэнтези, детектив, приключения, семейный, BDRip-AVC] DUB [Лицензия] +2xMVO [СВ Студия, HDrezka Studio] pb.wtf

Покемон. Детектив Пикачу через торрент pb.wtf

Размер: 2.25 GB | Добавлен: 4 мес. 21 д. назад | Торрент скачан:178 раз
Скачать  

22-07-2019 13:36 Покемон. Детектив Пикачу Скачать торрент  

Покемон. Детектив Пикачу / Pokémon Detective Pikachu
Год выпуска: 2019
Страна: США, Япония
Жанр: фантастика, фэнтези, детектив, приключения, семейный
Продолжительность: 01:44:29
Перевод:

#1: Дублированный | Лицензия
#2: Профессиональный (многоголосый) | СВ Студия
#3: Профессиональный (многоголосый) | HDRezka Studio

Субтитры: Русские (форс., полные), Английские (полные, SDH)

Режиссер: Роб Леттерман

rating


В ролях:

Райан Рейнольдс (Detective Pikachu, озвучка), Джастис Смит (Tim Goodman), Кэтрин Ньютон (Lucy Stevens), Билл Найи (Howard Clifford), Кэн Ватанабэ (Lieutenant Hide Yoshida), Крис Гир (Roger Clifford), Сьюки Уотерхаус (Ms. Norman), Джозетт Саймон (Grams), Алехандро Де Меса (Bartender), Рита Ора (Dr. Ann Laurent), Каран Сони (Jack), Макс Финчман (Young Tim Goodman)
Описание:

История начинается с таинственного исчезновения частного детектива экстра- класса Гарри Гудмана, расследовать которое предстоит его 21-летнему сыну Тиму. Помощь в расследовании ему окажет бывший партнер отца, детектив Пикачу - уморительный, остроумный и обаятельный сыщик, который является загадкой даже для себя самого. Обнаружив, что они каким-то фантастическим образом способны общаться друг с другом, Тим и Пикачу объединяют усилия в захватывающем расследовании этой запутанной истории. В погоне за уликами по неоновым улицам Райм Сити - современного разросшегося мегаполиса, где люди и покемоны живут бок о бок в гиперреалистичном мире игрового экшна, - они встречают самых разнообразных покемонов и раскрывают ужасный заговор, который способен разрушить это мирное сосуществование и стать угрозой для всей вселенной покемонов.

Качество: BDRip-AVC
Формат: MKV

Видео: 1024x428 (2.40:1), 23,976 fps, x264 ~1 796 kbps avg, 0.171 bit/pixel
Аудио#1: 48 kHz, AC3 Dolby Digital, 3/2 (L,C,R,l,r) + LFE ch, ~448.00 kbps avg | RUS (Лицензия)
Аудио#2: 48 kHz, AC3 Dolby Digital, 2 (L,R) ch, ~192.00 kbps avg | RUS (СВ Студия)
Аудио#3: 48 kHz, AC3 Dolby Digital, 2 (L,R) ch, ~192.00 kbps avg | RUS (HDRezka Studio)
Аудио#4: 48 kHz, AC3 Dolby Digital, 3/2 (L,C,R,l,r) + LFE ch, ~448.00 kbps avg | ENG
скриншот  скриншот  скриншот  скриншот  скриншот  

Общее
Уникальный идентификатор : 306397701053417351116893143043096710331 (0xE6820CFCF85D37A6BA31465439140CBB)
Полное имя : F:OlLanDGroupPokemon.Detective.Pikachu.2019.BDRip(AVC).OlLanDGroup.mkv
Формат : Matroska
Версия формата : Version 4 / Version 2
Размер файла : 2,25 Гбайт
Продолжительность : 1 ч. 44 м.
Общий поток : 3079 Кбит/сек
Название фильма : Pokemon.Detective.Pikachu.2019 #TorpedoUK#
Дата кодирования : UTC 2019-07-24 02:23:54
Программа кодирования : mkvmerge v29.0.0 ('Like It Or Not') 64-bit
Библиотека кодирования : libebml v1.3.6 + libmatroska v1.4.9

Видео
Идентификатор : 1
Формат : AVC
Формат/Информация : Advanced Video Codec
Профиль формата : High@L4.1
Параметр CABAC формата : Да
Параметр ReFrames формата : 10 кадров
Идентификатор кодека : V_MPEG4/ISO/AVC
Продолжительность : 1 ч. 44 м.
Битрейт : 1796 Кбит/сек
Ширина : 1024 пикселя
Высота : 428 пикселей
Соотношение сторон : 2,40:1
Режим частоты кадров : Постоянный
Частота кадров : 23,976 (24000/1001) кадра/сек
Цветовое пространство : YUV
Субдискретизация насыщенности : 4:2:0
Битовая глубина : 8 бит
Тип развёртки : Прогрессивная
Бит/(Пиксели*Кадры) : 0.171
Размер потока : 1,31 Гбайт (58%)
Библиотека кодирования : x264 core 146 r2538 121396c
Настройки программы : cabac=1 / ref=10 / deblock=1:-2:-3 / analyse=0x3:0x113 / me=umh / subme=11 / psy=1 / psy_rd=0.90:0.10 / mixed_ref=1 / me_range=48 / chroma_me=1 / trellis=2 / 8x8dct=1 / cqm=0 / deadzone=21,11 / fast_pskip=1 / chroma_qp_offset=-3 / threads=6 / lookahead_threads=1 / sliced_threads=0 / nr=0 / decimate=1 / interlaced=0 / bluray_compat=0 / constrained_intra=0 / bframes=11 / b_pyramid=2 / b_adapt=2 / b_bias=0 / direct=3 / weightb=1 / open_gop=0 / weightp=2 / keyint=240 / keyint_min=23 / scenecut=40 / intra_refresh=0 / rc_lookahead=40 / rc=2pass / mbtree=0 / bitrate=1796 / ratetol=1.0 / qcomp=0.60 / qpmin=0 / qpmax=69 / qpstep=4 / cplxblur=20.0 / qblur=0.5 / vbv_maxrate=50000 / vbv_bufsize=62500 / nal_hrd=none / filler=0 / ip_ratio=1.40 / pb_ratio=1.30 / aq=1:1.00
Язык : English
Default : Да
Forced : Нет

Аудио #1
Идентификатор : 2
Формат : AC-3
Формат/Информация : Audio Coding 3
Расширение режима : CM (complete main)
Параметр Endianness формата : Big
Идентификатор кодека : A_AC3
Продолжительность : 1 ч. 44 м.
Вид битрейта : Постоянный
Битрейт : 448 Кбит/сек
Каналы : 6 каналов
Расположение каналов : Front: L C R, Side: L R, LFE
Частота : 48,0 КГц
Частота кадров : 31,250 кадров/сек (1536 spf)
Битовая глубина : 16 бит
Метод сжатия : С потерями
Размер потока : 335 Мбайт (15%)
Заголовок : DUB [License]
Язык : Russian
Default : Да
Forced : Нет

Аудио #2
Идентификатор : 3
Формат : AC-3
Формат/Информация : Audio Coding 3
Расширение режима : CM (complete main)
Параметр Endianness формата : Big
Идентификатор кодека : A_AC3
Продолжительность : 1 ч. 44 м.
Вид битрейта : Постоянный
Битрейт : 192 Кбит/сек
Каналы : 2 канала
Расположение каналов : Front: L R
Частота : 48,0 КГц
Частота кадров : 31,250 кадров/сек (1536 spf)
Битовая глубина : 16 бит
Метод сжатия : С потерями
Размер потока : 143 Мбайт (6%)
Заголовок : MVO [СВ Студия]
Язык : Russian
Default : Нет
Forced : Нет

Аудио #3
Идентификатор : 4
Формат : AC-3
Формат/Информация : Audio Coding 3
Расширение режима : CM (complete main)
Параметр Endianness формата : Big
Идентификатор кодека : A_AC3
Продолжительность : 1 ч. 44 м.
Вид битрейта : Постоянный
Битрейт : 192 Кбит/сек
Каналы : 2 канала
Расположение каналов : Front: L R
Частота : 48,0 КГц
Частота кадров : 31,250 кадров/сек (1536 spf)
Битовая глубина : 16 бит
Метод сжатия : С потерями
Размер потока : 143 Мбайт (6%)
Заголовок : MVO [HDRezka Studio]
Язык : Russian
Default : Нет
Forced : Нет

Аудио #4
Идентификатор : 5
Формат : AC-3
Формат/Информация : Audio Coding 3
Расширение режима : CM (complete main)
Параметр Endianness формата : Big
Идентификатор кодека : A_AC3
Продолжительность : 1 ч. 44 м.
Вид битрейта : Постоянный
Битрейт : 448 Кбит/сек
Каналы : 6 каналов
Расположение каналов : Front: L C R, Side: L R, LFE
Частота : 48,0 КГц
Частота кадров : 31,250 кадров/сек (1536 spf)
Битовая глубина : 16 бит
Метод сжатия : С потерями
Размер потока : 335 Мбайт (15%)
Заголовок : [Original]
Язык : English
Default : Нет
Forced : Нет

Текст #1
Идентификатор : 6
Формат : UTF-8
Идентификатор кодека : S_TEXT/UTF8
Идентификатор кодека/Информация : UTF-8 Plain Text
Продолжительность : 50 м. 1 с.
Битрейт : 1 бит/сек
Count of elements : 11
Размер потока : 567 байт (0%)
Заголовок : Forced
Язык : Russian
Default : Да
Forced : Нет

Текст #2
Идентификатор : 7
Формат : UTF-8
Идентификатор кодека : S_TEXT/UTF8
Идентификатор кодека/Информация : UTF-8 Plain Text
Продолжительность : 1 ч. 34 м.
Битрейт : 118 бит/сек
Count of elements : 1797
Размер потока : 82,2 Кбайт (0%)
Заголовок : Full
Язык : Russian
Default : Нет
Forced : Нет

Текст #3
Идентификатор : 8
Формат : UTF-8
Идентификатор кодека : S_TEXT/UTF8
Идентификатор кодека/Информация : UTF-8 Plain Text
Продолжительность : 1 ч. 34 м.
Битрейт : 65 бит/сек
Count of elements : 1599
Размер потока : 45,7 Кбайт (0%)
Заголовок : Full
Язык : English
Default : Нет
Forced : Нет

Текст #4
Идентификатор : 9
Формат : UTF-8
Идентификатор кодека : S_TEXT/UTF8
Идентификатор кодека/Информация : UTF-8 Plain Text
Продолжительность : 1 ч. 34 м.
Битрейт : 77 бит/сек
Count of elements : 1902
Размер потока : 54,0 Кбайт (0%)
Заголовок : SDH
Язык : English
Default : Нет
Forced : Нет

Меню
00:00:00.000 : en:Chapter 01
00:06:55.957 : en:Chapter 02
00:15:36.686 : en:Chapter 03
00:24:06.445 : en:Chapter 04
00:31:00.108 : en:Chapter 05
00:40:45.943 : en:Chapter 06
00:49:57.077 : en:Chapter 07
00:59:49.669 : en:Chapter 08
01:09:22.784 : en:Chapter 09
01:16:59.990 : en:Chapter 10
01:23:20.829 : en:Chapter 11
01:30:55.367 : en:Chapter 12
01:35:49.160 : en:Chapter 13

pb.wtf



Скачать Покемон. Детектив Пикачу через торрент https://i87.fastpic.ru/big/2019/0722/e4/cc001467c115bf8339ad6e479732b7e4.jpg Скачать фильм Покемон. Детектив Пикачу через торрент бесплантно в хорошем качестве Описание: История начинается с таинственного исчезновения частного детектива экстра- класса Гарри Гудмана, расследовать которое предстоит ... 10 10 10
Торрент: Зарегистрирован [2019-07-24 03:17] · скачан: 178 раз
Статус: √ проверено
Размер: 2.25 GB
Как cкачать? Как скачать Покемон. Детектив Пикачу через торрент | qTorrent

% Раздел Тема Автор DL S | L
Фильмы [HD 720p, 1080p] (Хороший звук DUB, MVO) [ 4.12 GB ] Покемон. Пикачу / Pokémon Detective Pikachu [2019 BDRip 720p] DUB [] +2xMVO [СВ Студия HDrezka Studio] bober100 Скачать
5 | 0
Фильмы (Blu-ray, BD-Remux, HDDVD) [ 43.36 GB ] Покемон. Пикачу / Pokémon Detective Pikachu [2019 Blu-ray EUR 1080p] DUB [] bober100 Скачать
1 | 0
Фильмы (HD 720p, 1080p) (48-60 fps) [ 20.92 GB ] Покемон. Пикачу / Pokémon Detective Pikachu [2019 BDRip 1080p 60 fps] [] sheker187 Скачать
1 | 1
3D Фильмы [ 22.53 GB ] Покемон. Пикачу в 3Д / Pokémon Detective Pikachu 3D [2019 семейн BDRip 1080p] OverUnder / Вертикальная стереопара serega768 Скачать
1 | 0
3D Фильмы [ 9.69 GB ] Покемон. Пикачу 3Д / Pokémon Detective Pikachu 3D [2019 BDRip 1080p] [Half OverUnder] DUB [] bober100 Скачать
3 | 0
Фильмы (HD 720p, 1080p) (48-60 fps) [ 5.86 GB ] Покемон. Пикачу / Pokémon Detective Pikachu [2019 BDRip-HEVC 10bit 1080p 60fps Dub MVO Original] Tiberiumsun69 Скачать
113 | 9
Фильмы 2019 [DVDrip, WEB-DLRip, HDrip] (DUB, MVO) [ 771 MB ] Покемон. Пикачу / Pokémon Detective Pikachu [2019 BDRip] DUB [] bober100 Скачать
2 | 0

28-11-2019 20:33  

Отключить всю рекламу на сайте

    Дорогой пользователь! Огромная просьба, поблагодарите релизера, оцените раздачу и оставьте свои комментарий, если Вы скачали Покемон. Детектив Пикачу через торрент бесплатно! Внесите свою лепту в развитие PiratBit!
    Комментировать посты могут только пользователи прошедшие не сложную регистрацию
    Показать сообщения:    

    Покемон. Детектив Пикачу через торрент
    Скачать бесплатно Покемон. Детектив Пикачу
    Покемон. Детектив Пикачу скачать торрент
    Покемон. Детектив Пикачу смотреть онлайн
    Cкачать фильм Покемон. Детектив Пикачу бесплатно
    Покемон. Детектив Пикачу скачать торрент в хорошем качестве
    Покемон. Детектив Пикачу смотреть онлайн бесплатно в хорошем качестве


    Вы не можете начинать темы
    Вы не можете отвечать на сообщения
    Вы не можете редактировать свои сообщения
    Вы не можете удалять свои сообщения
    Вы не можете голосовать в опросах
    Вы не можете прикреплять файлы к сообщениям
    Вы можете скачивать файлы