Ссылка на приватное зеркало всего за 1$. Внимание количество ограничено!!!

iTunes

1+1

iTunes

мы

WEB-DL

1

iTunes

Чернобыль

iTunes

Ральф против интернета

Лицензия

ПШазам

Лицензия

Оно 2

Лицензия

30
pack

Вам бонус

ВАЖНО

!!Акция!!

Alien_RageХит недели

RePack

Resident Evil 21

ИГРА 18+

pack

RePack

jed

!!Акция!!

Alien_Rage

RePack

fifa19

RePack

Assassins Creed: Odyssey

RePack

NEED FOR SPEED™ PAYBACK

3 сезон

9 сезон

Бесстыжие 9 сезон

Все сериалы

все сериалы на PB.wtf

RePack

FAR CRY 5
Ребята, катастрофически не хватает 1900р. для оплаты серверов за Октябрь (всвязи с блокировками трафик упал в 3 раза), 1-2р., выручайте.
  

Дни жатвы / Days of Heaven (Терренс Малик) [1978 г., драма, мелодрама, BDRip 720p] MVO + DVO + AVO - KORSAR pb.wtf

Дни жатвы через торрент pb.wtf

Размер: 6.08 GB | Добавлен: 4 мес. 23 д. назад | Торрент скачан:4 раза
Скачать  

22-07-2019 14:38 Дни жатвы Скачать торрент  

Дни жатвы / Days of Heaven
Год выпуска: 1978
Страна: США
Жанр: Драма, мелодрама
Продолжительность: 01:34:00
Перевод: Профессиональный многоголосый, профессиональный двухголосый, авторский одноголосый
Субтитры: Русские, английские
Режиссёр: Терренс Малик
В ролях: Ричард Гир, Брук Адамс, Сэм Шепард, Линда Мэнз, Роберт Дж. Уилки, Джекки Шултис, Стюарт Марголин, Тимоти Скотт, Джин Белл, Даг Кершоу
Описание: Любовники Билл и Эбби, которые выдают себя за брата и сестру, вместе с настоящей сестрой Билла, девочкой-подростком Линдой, глазами которой мы и видим всю историю, путешествуют по стране. Они бедны, у них нет дома и работают они где придется — в том числе и во время дней жатвы у богатого фермера, который платит три доллара в день… Фермер молод, красив и смертельно болен — жить ему осталось не меньше года. Кроме того, он влюбляется в Эбби. Тогда парочка решает провернуть комбинацию — Эбби выйдет замуж за него, а после смерти фермера, которая должна наступить самое большее через год, получить наследство.

rating

Качество: BDRip 720p
Формат: MKV
Видео: MPEG-4 AVC, 1280x720, 7781 Кбит/сек, 23.976 кадра/сек
Аудио 1: AC3, 2 ch, 192 Кбит/сек | Русский, MVO, НТВ+
Аудио 2: AC3, 2 ch, 192 Кбит/сек | Русский, DVO
Аудио 3: AC3, 6 ch, 448 Кбит/сек | Русский, AVO, С. Визгунов
Аудио 4: AC3, 6 ch, 640 Кбит/сек | Английский, Оригинал

Релиз от:


• x264 [info]: frame I:685 Avg QP:15.91 size: 140783
• x264 [info]: frame P:27853 Avg QP:19.23 size: 63990
• x264 [info]: frame B:106686 Avg QP:20.70 size: 34039

============================================

Общее
Уникальный идентификатор : 250732488752832517434829446401864087079 (0xBCA15220BBE91FAFB6F65A3EBFFDB627)
Полное имя : Days.of.Heaven.1978.BDRip.720p.KORSAR.mkv
Формат : Matroska
Версия формата : Version 2
Размер файла : 6,08 Гбайт
Продолжительность : 1 ч. 34 м.
Общий поток : 9251 Кбит/сек
Дата кодирования : UTC 2017-06-22 00:56:06
Программа кодирования : mkvmerge v5.8.0 ('No Sleep / Pillow') built on Sep 2 2012 15:37:04
Библиотека кодирования : libebml v1.2.3 + libmatroska v1.3.0

Видео
Идентификатор : 1
Формат : AVC
Формат/Информация : Advanced Video Codec
Профиль формата : High@L4.1
Параметр CABAC формата : Да
Параметр ReFrames формата : 9 кадров
Идентификатор кодека : V_MPEG4/ISO/AVC
Продолжительность : 1 ч. 34 м.
Битрейт : 7781 Кбит/сек
Ширина : 1280 пикселей
Высота : 720 пикселей
Соотношение сторон : 16:9
Режим частоты кадров : Постоянный
Частота кадров : 23,976 (24000/1001) кадра/сек
Цветовое пространство : YUV
Субдискретизация насыщенности : 4:2:0
Битовая глубина : 8 бит
Тип развёртки : Прогрессивная
Бит/(Пиксели*Кадры) : 0.352
Размер потока : 4,99 Гбайт (82%)
Заголовок : RIP | MZMA
Библиотека кодирования : x264 core 150 r2833kMod df79067
Настройки программы : cabac=1 / ref=9 / deblock=1:-1:-1 / analyse=0x3:0x113 / me=umh / subme=11 / psy=1 / fade_compensate=0.00 / psy_rd=1.00:0.00 / mixed_ref=1 / me_range=48 / chroma_me=1 / trellis=2 / 8x8dct=1 / cqm=0 / deadzone=21,11 / fast_pskip=0 / chroma_qp_offset=-2 / threads=6 / lookahead_threads=1 / sliced_threads=0 / nr=0 / decimate=0 / interlaced=0 / bluray_compat=0 / constrained_intra=0 / bframes=16 / b_pyramid=2 / b_adapt=2 / b_bias=0 / direct=3 / weightb=1 / open_gop=0 / weightp=2 / keyint=250 / keyint_min=23 / scenecut=40 / intra_refresh=0 / rc_lookahead=60 / rc=2pass / mbtree=1 / bitrate=7781 / ratetol=1.0 / qcomp=0.60 / qpmin=0 / qpmax=69 / qpstep=4 / cplxblur=20.0 / qblur=0.5 / vbv_maxrate=50000 / vbv_bufsize=62500 / nal_hrd=none / filler=0 / ip_ratio=1.40 / aq=3:1.00
Язык : English
Default : Да
Forced : Нет
Цветовой диапазон : Limited
Основные цвета : BT.709
Характеристики трансфера : BT.709
Коэффициенты матрицы : BT.709

Аудио #1
Идентификатор : 2
Формат : AC-3
Формат/Информация : Audio Coding 3
Параметр Endianness формата : Big
Идентификатор кодека : A_AC3
Продолжительность : 1 ч. 34 м.
Вид битрейта : Постоянный
Битрейт : 192 Кбит/сек
Каналы : 2 канала
Расположение каналов : Front: L R
Частота : 48,0 КГц
Частота кадров : 31,250 кадров/сек (1536 spf)
Битовая глубина : 16 бит
Метод сжатия : С потерями
Размер потока : 129 Мбайт (2%)
Заголовок : MVO | НТВ+
Язык : Russian
Default : Да
Forced : Нет

Аудио #2
Идентификатор : 3
Формат : AC-3
Формат/Информация : Audio Coding 3
Параметр Endianness формата : Big
Идентификатор кодека : A_AC3
Продолжительность : 1 ч. 34 м.
Вид битрейта : Постоянный
Битрейт : 192 Кбит/сек
Каналы : 2 канала
Расположение каналов : Front: L R
Частота : 48,0 КГц
Частота кадров : 31,250 кадров/сек (1536 spf)
Битовая глубина : 16 бит
Метод сжатия : С потерями
Размер потока : 129 Мбайт (2%)
Заголовок : DVO
Язык : Russian
Default : Нет
Forced : Нет

Аудио #3
Идентификатор : 4
Формат : AC-3
Формат/Информация : Audio Coding 3
Параметр Endianness формата : Big
Идентификатор кодека : A_AC3
Продолжительность : 1 ч. 34 м.
Вид битрейта : Постоянный
Битрейт : 448 Кбит/сек
Каналы : 6 каналов
Расположение каналов : Front: L C R, Side: L R, LFE
Частота : 48,0 КГц
Частота кадров : 31,250 кадров/сек (1536 spf)
Битовая глубина : 16 бит
Метод сжатия : С потерями
Размер потока : 301 Мбайт (5%)
Заголовок : AVO | С. Визгунов
Язык : Russian
Default : Нет
Forced : Нет

Аудио #4
Идентификатор : 5
Формат : AC-3
Формат/Информация : Audio Coding 3
Параметр Endianness формата : Big
Идентификатор кодека : A_AC3
Продолжительность : 1 ч. 34 м.
Вид битрейта : Постоянный
Битрейт : 640 Кбит/сек
Каналы : 6 каналов
Расположение каналов : Front: L C R, Side: L R, LFE
Частота : 48,0 КГц
Частота кадров : 31,250 кадров/сек (1536 spf)
Битовая глубина : 16 бит
Метод сжатия : С потерями
Размер потока : 431 Мбайт (7%)
Заголовок : Original
Язык : English
Default : Нет
Forced : Нет

Текст #1
Идентификатор : 6
Формат : UTF-8
Идентификатор кодека : S_TEXT/UTF8
Идентификатор кодека/Информация : UTF-8 Plain Text
Язык : Russian
Default : Нет
Forced : Нет

Текст #2
Идентификатор : 7
Формат : UTF-8
Идентификатор кодека : S_TEXT/UTF8
Идентификатор кодека/Информация : UTF-8 Plain Text
Язык : English
Default : Нет
Forced : Нет

Меню
00:00:00.000 : :Going places
00:06:29.514 : :Work
00:09:57.972 : :Harvest
00:12:15.652 : :Abby
00:16:27.528 : :Prognosis
00:19:58.406 : :The job ends
00:25:13.470 : :Tired
00:29:31.186 : :Staying on
00:33:25.170 : :The future
00:36:23.807 : :Marriage
00:41:08.841 : :The rich
00:44:37.008 : :Out for a walk
00:47:27.720 : :"I don't know you"
00:51:32.172 : :Flying circus
00:57:57.099 : :Business
01:02:14.564 : :Return
01:07:42.558 : :Locusts
01:16:17.364 : :"Nobody's perfect"
01:21:02.900 : :Hunted
01:26:13.835 : :New beginnings
pb.wtf



Скачать Дни жатвы через торрент https://i1.imageban.ru/out/2018/11/29/ef80564ddb32380124a1bce0df61de8a.png Скачать фильм Дни жатвы через торрент бесплантно в хорошем качестве Описание: Любовники Билл и Эбби, которые выдают себя за брата и сестру, вместе с настоящей сестрой Билла, девочкой-подростком Линдой, ... 5 10 1
Info! Золотая раздача, скачанное не засчитывается.
Торрент: Зарегистрирован [2019-07-22 14:38] · скачан: 4 раз
Статус: √ проверено
Размер: 6.08 GB
Как cкачать? Как скачать Дни жатвы через торрент | qTorrent

28-11-2019 20:33  

Отключить всю рекламу на сайте

    Дорогой пользователь! Огромная просьба, поблагодарите релизера, оцените раздачу и оставьте свои комментарий, если Вы скачали Дни жатвы через торрент бесплатно! Внесите свою лепту в развитие PiratBit!
    Комментировать посты могут только пользователи прошедшие не сложную регистрацию
    Показать сообщения:    

    Дни жатвы через торрент
    Скачать бесплатно Дни жатвы
    Дни жатвы скачать торрент
    Дни жатвы смотреть онлайн
    Cкачать фильм Дни жатвы бесплатно
    Дни жатвы скачать торрент в хорошем качестве
    Дни жатвы смотреть онлайн бесплатно в хорошем качестве


    Вы не можете начинать темы
    Вы не можете отвечать на сообщения
    Вы не можете редактировать свои сообщения
    Вы не можете удалять свои сообщения
    Вы не можете голосовать в опросах
    Вы не можете прикреплять файлы к сообщениям
    Вы можете скачивать файлы