Ссылка на приватное зеркало нашего сайта всего за 1$. Внимание количество ограничено!!!

2 сезон

iTunes

1 сезон

1

2 сезон

2 сезон

iTunes

1 сезон

RePack

30

Ultimate

ВАЖНО

ИГРА 18+

pack

RePack

MK11
pack

Забери бонус

RePack

jed

!!Акция!!

Alien_Rage

RePack

fifa19

RePack

Assassins Creed: Odyssey

RePack

NEED FOR SPEED™ PAYBACK

4 сезон

9 сезон

Бесстыжие 9 сезон

Все сериалы

все сериалы на PB.wtf

RePack

FAR CRY 5
  

Лондон убивает / London Kills / Сезон: 1 / Серии: 1-5 из 5 (Крэйг Пиклз, Фиона Уолтон, Шон Глинн) [2019, криминал, WEB-DLRip] MVO [HDRezka Studio] pb.wtf

Лондон убивает через торрент pb.wtf

Размер: 3.32 GB | Добавлен: 1 год 4 мес. назад | Торрент скачан:56 раз
Скачать  

22-07-2019 16:21 Лондон убивает Скачать торрент  

Лондон убивает / London Kills Год выпуска: 2019
Страна: Великобритания
Жанр: криминал
Продолжительность: ~00:45:00 серия
Перевод: Профессиональный (многоголосый закадровый) | HDRezka Studio
Субтитры: отсутствуют

Режиссёр: Крэйг Пиклз, Фиона Уолтон, Шон Глинн

В ролях: Хьюго Спир, Шэрон Смолл, Бэйли Патрик, Дженни Жак, Ли Байфорд, Рут Хоррокс, Мэйми МакКой, Адрианна Бертола, Стив Броад

Описание: В центре сюжета сериала находится элитный отряд детективов из Лондона, специализирующийся на расследовании убийств. Инспектор Дэвид Брэдфорд возвращается на службу после трехмесячного перерыва, связанного с пропажей жены, которая так и не нашлась. Среди его подчиненных сержант Вивьен Коул — специалист по психологическим портретам, Роб Брэйди — суровый детектив с большим опытом, и стажер Билли Фицджеральд — добродушная девушка, чья неопытность может подставить всю команду. В каждом эпизоде детективы расследуют новое убийство, а Брэдфорд не оставляет попыток разыскать свою супругу...

rating

Качество: WEB-DLRip
Формат: AVI

Видео: XVID, 720x400, 16:9, 25 fps, ~1700 kbps avg, ~0.24 bit/pixel
Аудио: Russian (AC3, 2 ch, 192 kbps, 16 bits, 48.0 KHz) - MVO
Аудио 2: English (AC3, 2 ch, 192 kbps, 16 bits, 48.0 KHz) - оригинал


Реклама: отсутствует
General
Complete name : J:\London Kills.s01.WEB-DLRip.HDRezka\London.Kills.S01E01.WEB-DLRip.HDRezka.avi
Format : AVI
Format/Info : Audio Video Interleave
File size : 687 MiB
Duration : 45 min 52 s
Overall bit rate : 2 094 kb/s
Writing application : VirtualDubMod 1.5.10.3 | www.virtualdub-fr.org || (build 2550/release)
Writing library : VirtualDubMod build 2550/release

Video
ID : 0
Format : MPEG-4 Visual
Format profile : Advanced Simple@L5
Format settings : BVOP1
Format settings, BVOP : 1
Format settings, QPel : No
Format settings, GMC : No warppoints
Format settings, Matrix : Default (MPEG)
Codec ID : XVID
Codec ID/Hint : XviD
Duration : 45 min 52 s
Bit rate : 1 695 kb/s
Width : 720 pixels
Height : 400 pixels
Display aspect ratio : 16:9
Frame rate : 25.000 FPS
Color space : YUV
Chroma subsampling : 4:2:0
Bit depth : 8 bits
Scan type : Progressive
Compression mode : Lossy
Bits/(Pixel*Frame) : 0.235
Stream size : 556 MiB (81%)
Writing library : XviD 73

Audio #1
ID : 1
Format : AC-3
Format/Info : Audio Coding 3
Codec ID : 2000
Duration : 45 min 52 s
Bit rate mode : Constant
Bit rate : 192 kb/s
Channel(s) : 2 channels
Channel positions : Front: L R
Sampling rate : 48.0 kHz
Frame rate : 31.250 FPS (1536 SPF)
Bit depth : 16 bits
Compression mode : Lossy
Stream size : 63.0 MiB (9%)
Alignment : Split accross interleaves
Interleave, duration : 40 ms (1.00 video frame)
Interleave, preload duratio : 500 ms
Service kind : Complete Main

Audio #2
ID : 2
Format : AC-3
Format/Info : Audio Coding 3
Codec ID : 2000
Duration : 45 min 52 s
Bit rate mode : Constant
Bit rate : 192 kb/s
Channel(s) : 2 channels
Channel positions : Front: L R
Sampling rate : 48.0 kHz
Frame rate : 31.250 FPS (1536 SPF)
Bit depth : 16 bits
Compression mode : Lossy
Stream size : 63.0 MiB (9%)
Alignment : Split accross interleaves
Interleave, duration : 40 ms (1.00 video frame)
Interleave, preload duratio : 500 ms
Service kind : Complete Main
pb.wtf



Скачать Лондон убивает через торрент https://i89.fastpic.ru/big/2019/0722/6c/8562e8eb9823b3244b6b4aa788d3f46c.jpg Скачать фильм Лондон убивает через торрент бесплантно в хорошем качестве Описание: В центре сюжета сериала находится элитный отряд детективов из Лондона, специализирующийся на расследовании убийств. Инспектор ... 10 10 3
Торрент: Зарегистрирован [2019-07-22 16:21] · скачан: 56 раз
Статус: √ проверено
Размер: 3.32 GB
Как cкачать? Как скачать Лондон убивает через торрент | qTorrent

% Раздел Тема Автор DL S | L
Зарубежные сериалы [ 2.45 GB ] Лондон убивает / London Kills / Сезон: 2 / Серии: 1-5 из 5 [2019 WEBRip-AVC] [MVO] killermax2013 Скачать
1 | 0
Зарубежные сериалы [ 15.55 GB ] Лондон убивает / London Kills / Сезон: 1 / Серии: 1-5 из 5 [2019 WEB-DL 1080p] MVO [HDRezka Studio] bober100 Скачать
1 | 0
Зарубежные сериалы [ 7.42 GB ] Лондон убивает / London Kills / Сезон: 1 / Серии: 1-5 из 5 [2019 WEB-DL 720p] [MVO] killermax2013 Скачать
1 | 0

28-11-2019 20:33  

Отключить всю рекламу на сайте

    Дорогой пользователь! Огромная просьба, поблагодарите релизера, оцените раздачу и оставьте свои комментарий, если Вы скачали Лондон убивает через торрент бесплатно! Внесите свою лепту в развитие PiratBit!
    Комментировать посты могут только пользователи прошедшие не сложную регистрацию
    Показать сообщения:    

    Лондон убивает через торрент
    Скачать бесплатно Лондон убивает
    Лондон убивает скачать торрент
    Лондон убивает смотреть онлайн
    Cкачать фильм Лондон убивает бесплатно
    Лондон убивает скачать торрент в хорошем качестве
    Лондон убивает смотреть онлайн бесплатно в хорошем качестве


    Вы не можете начинать темы
    Вы не можете отвечать на сообщения
    Вы не можете редактировать свои сообщения
    Вы не можете удалять свои сообщения
    Вы не можете голосовать в опросах
    Вы не можете прикреплять файлы к сообщениям
    Вы можете скачивать файлы