Ссылка на приватное зеркало нашего сайта всего за 1$. Внимание количество ограничено!!!

2 сезон

iTunes

1 сезон

1

2 сезон

2 сезон

iTunes

1 сезон

RePack

30

Новинка

ВАЖНО

ИГРА 18+

pack

RePack

MK11
pack

Забери бонус

RePack

jed

!!Акция!!

Alien_Rage

RePack

fifa19

RePack

Assassins Creed: Odyssey

RePack

NEED FOR SPEED™ PAYBACK

4 сезон

9 сезон

Бесстыжие 9 сезон

Все сериалы

все сериалы на PB.wtf

RePack

FAR CRY 5
  

Охотник на оленей / The Deer Hunter (Майкл Чимино) [1978, драма, военный, UHD BDRemux 2160p] 3xMVO + 4xAVO pb.wtf

Охотник на оленей через торрент pb.wtf

Размер: 73.97 GB | Добавлен: 1 год 4 мес. назад | Торрент скачан:12 раз
Скачать  

22-07-2019 16:21 Охотник на оленей Скачать торрент  

Охотник на оленей / The Deer Hunter

Год выпуска: 1978
Страна: США, Великобритания
Жанр: драма, военный
Продолжительность: 03:03:43
Перевод: Профессиональный многоголосый, авторский
Субтитры: Русские, английские
Режиссер: Майкл Чимино
В ролях:

Роберт Де Ниро (Michael), Джон Казале (Stan), Джон Сэвэдж (Steven), Кристофер Уокен (Nick), Мэрил Стрип (Linda), Джордж Дзундза (John), Чак Эспегрен (Axel), Ширли Столер (Steven's Mother), Рутаня Олда (Angela), Пьер Сегаи (Julien), Мади Каплан (Axel's Girl), Эми Райт (Bridesmaid)
Описание:
История о трех американцах русского происхождения - их жизни до, во время и после войны во Вьетнаме.
Рейтинг:

MPAA: R - Лицам до 17 лет обязательно присутствие взрослого
Качество: UHD BDRemux 2160p
Формат: MKV
Видео: HEVC HDR, 45.6 Mбит/с, 3840x2160, 24.000 Кадр/с
Аудио #1: Russian: 48 kHz, AC3, 2/0 (L,R) ch, ~192 kbps avg |Многоголосый закадровый, Нева-1|
Аудио #2: Russian: 48 kHz, AC3, 3/2 (L,C,R,l,r) + LFE ch, ~384 kbps avg |Многоголосый закадровый, Киномания|
Аудио #3: Russian: 48 kHz/16-bit, DTS-HD MA 5.1, ~1985 kbps avg |Многоголосый закадровый, Амальгама|
Аудио #5: Russian: 48 kHz/16-bit, DTS-HD MA 5.1, ~1986 kbps avg |Одноголосый закадровый, Ю.Сербин|
Аудио #6: Russian: 48 kHz/16-bit, DTS-HD MA 5.1, ~1982 kbps avg |Одноголосый закадровый, В.Горчаков|
Аудио #7: Russian: 48 kHz/16-bit, DTS-HD MA 5.1, ~2002 kbps avg |Одноголосый закадровый, В.Котов|
Аудио #8: Russian: 48 kHz, AC3, 2/0 (L,R) ch, ~192 kbps avg |Одноголосый закадровый, А.Гаврилов|
Аудио #9: Ukrainian: 48 kHz, AC3, 3/2 (L,C,R,l,r) + LFE ch, ~448 kbps avg |Многоголосый закадровый, "Цікава ідея"|
Аудио #10: English: 48 kHz/24-bit, DTS-HD MA 5.1, ~2947 kbps avg -Оригинал
Навигация по главам: есть

Премия Японской киноакадемии и «Голубая лента» за лучшую иностранную картину в Японии по итогам 1979 года, включён в 1996 году в Национальный регистр фильмов.

Британская академия, 1980 год
Победитель (2):
Лучшая работа оператора
Лучший монтаж
Номинации (7):
Лучший фильм
Лучшая мужская роль (Роберт Де Ниро)
Лучшая женская роль (Мэрил Стрип)
Лучшая мужская роль второго плана (Кристофер Уокен)
Лучший режиссер (Майкл Чимино)
Лучший сценарий
Лучший саундтрек

Оскар, 1979 год
Победитель (5):
Лучший фильм
Лучшая мужская роль второго плана (Кристофер Уокен)
Лучший режиссер (Майкл Чимино)
Лучший звук
Лучший монтаж
Номинации (4):
Лучшая мужская роль (Роберт Де Ниро)
Лучшая женская роль второго плана (Мэрил Стрип)
Лучший сценарий
Лучшая работа оператора

Золотой глобус, 1979 год
Победитель (1):
Лучший режиссер (Майкл Чимино)
Номинации (5):
Лучшая мужская роль (драма) (Роберт Де Ниро)
Лучший фильм (драма)
Лучшая женская роль второго плана (Мэрил Стрип)
Лучшая мужская роль второго плана (Кристофер Уокен)
Лучший сценарий
• Как считается, ряд смертей в США в 1980-е годы был вызван знаменитой сценой игры в «русскую рулетку» в фильме. Эпизод с «русской рулеткой» получил очень широкую известность. Однако не существует убедительных доказательств того, что подобные случаи действительно имели место во время Вьетнамской войны.
• Во время показа фильма на Берлинском кинофестивале 1979 года делегация СССР демонстративно покинула кинозал. Её примеру последовали делегации ГДР, Польши, Болгарии, Венгрии, Кубы и ещё нескольких стран. Впоследствии советская печать резко критиковала фильм за поднятую в нём тему русской эмиграции, а также за изображение вьетнамских партизан жестокими садистами.
• Для Джона Казале, сыгравшего роль Стэнли, «Охотник на оленей» (1978) стал последним фильмом в его биографии. 12 марта 1978 года Джон ушел из жизни, не сумев одолеть рак.
• Главную роль Майкла Вронски в фильме должен был исполнить первоначально Рой Шайдер. Актер был утвержден киностудией, но выбыл из проекта по своим собственным соображениям. Студия была в ярости и заменила его Робертом Де Ниро. Позже Шайдер признался, что считает это своим самым обидным карьерным промахом.
• Роберт Де Ниро и Джон Сэвэдж все трюки выполняли сами. Падение с десятиметровой высоты за 3 дня сняли 15 раз. Кстати, в том самом дубле, который мы видим в фильме, ассистенты потянули за верёвку и чуть не убили Сэвэджа с Де Ниро. Оба они орут людям в вертолёте, чтоб те были осторожнее, и это видно в кадре.
• Чак Эспегрен (Аксель) — не профессиональный актёр, а мастер реального сталелитейного завода в Пенсильвании. Его колоритная фигура так поразила Майкла Чимино, что он был приглашён в фильм без проб и утверждён на роль вторым из артистов, после Де Ниро.
Complete name : E:\Movies\The.Deer.Hunter.1978.BluRay.REMUX.HDR.HEVC.DTS-HD.MA.5.1-SHD13.mkv
Format : Matroska
Format version : Version 4
File size : 74.0 GiB
Duration : 3 h 3 min
Overall bit rate mode : Variable
Overall bit rate : 57.7 Mb/s
Movie name : The.Deer.Hunter.1978.BluRay.REMUX.HDR.HEVC.DTS-HD.MA.5.1-SHD13
Encoded date : UTC 2019-07-22 12:29:51
Writing application : mkvmerge v34.0.0 ('Sight and Seen') 64-bit
Writing library : libebml v1.3.7 + libmatroska v1.5.0
Attachments : poster.jpg

Video
ID : 1
Format : HEVC
Format/Info : High Efficiency Video Coding
Format profile : Main 10@L5.1@High
HDR format : SMPTE ST 2086, HDR10 compatible
Codec ID : V_MPEGH/ISO/HEVC
Duration : 3 h 3 min
Bit rate : 45.6 Mb/s
Width : 3 840 pixels
Height : 2 160 pixels
Display aspect ratio : 16:9
Frame rate mode : Constant
Frame rate : 24.000 FPS
Color space : YUV
Chroma subsampling : 4:2:0 (Type 2)
Bit depth : 10 bits
Bits/(Pixel*Frame) : 0.229
Stream size : 58.4 GiB (79%)
Title : The.Deer.Hunter.1978.BluRay.REMUX.HDR.HEVC.DTS-HD.MA.5.1-SHD13
Language : Russian
Default : Yes
Forced : No
Color range : Limited
Color primaries : BT.2020
Transfer characteristics : PQ
Matrix coefficients : BT.2020 non-constant
Mastering display color pri : BT.2020
Mastering display luminance : min: 0.0001 cd/m2, max: 1000 cd/m2

Audio #1
ID : 2
Format : AC-3
Format/Info : Audio Coding 3
Commercial name : Dolby Digital
Codec ID : A_AC3
Duration : 3 h 3 min
Bit rate mode : Constant
Bit rate : 192 kb/s
Channel(s) : 2 channels
Channel layout : L R
Sampling rate : 48.0 kHz
Frame rate : 31.250 FPS (1536 SPF)
Bit depth : 16 bits
Compression mode : Lossy
Stream size : 252 MiB (0%)
Title : MVO, Нева-1
Language : Russian
Service kind : Complete Main
Default : Yes
Forced : No

Audio #2
ID : 3
Format : AC-3
Format/Info : Audio Coding 3
Commercial name : Dolby Digital
Codec ID : A_AC3
Duration : 3 h 3 min
Bit rate mode : Constant
Bit rate : 192 kb/s
Channel(s) : 2 channels
Channel layout : L R
Sampling rate : 48.0 kHz
Frame rate : 31.250 FPS (1536 SPF)
Bit depth : 16 bits
Compression mode : Lossy
Stream size : 252 MiB (0%)
Title : AVO, А.Гаврилов
Language : Russian
Service kind : Complete Main
Default : No
Forced : No

Audio #3
ID : 4
Format : AC-3
Format/Info : Audio Coding 3
Commercial name : Dolby Digital
Codec ID : A_AC3
Duration : 3 h 3 min
Bit rate mode : Constant
Bit rate : 384 kb/s
Channel(s) : 6 channels
Channel layout : L R C LFE Ls Rs
Sampling rate : 48.0 kHz
Frame rate : 31.250 FPS (1536 SPF)
Bit depth : 16 bits
Compression mode : Lossy
Stream size : 504 MiB (1%)
Title : MVO, Киномания
Language : Russian
Service kind : Complete Main
Default : No
Forced : No

Audio #4
ID : 5
Format : DTS XLL
Format/Info : Digital Theater Systems
Commercial name : DTS-HD Master Audio
Codec ID : A_DTS
Duration : 3 h 3 min
Bit rate mode : Variable
Bit rate : 1 985 kb/s
Channel(s) : 6 channels
Channel layout : C L R Ls Rs LFE
Sampling rate : 48.0 kHz
Frame rate : 93.750 FPS (512 SPF)
Bit depth : 16 bits
Compression mode : Lossless
Stream size : 2.54 GiB (3%)
Title : MVO, Амальгама
Language : Russian
Default : No
Forced : No

Audio #5
ID : 6
Format : DTS XLL
Format/Info : Digital Theater Systems
Commercial name : DTS-HD Master Audio
Codec ID : A_DTS
Duration : 3 h 3 min
Bit rate mode : Variable
Bit rate : 1 986 kb/s
Channel(s) : 6 channels
Channel layout : C L R Ls Rs LFE
Sampling rate : 48.0 kHz
Frame rate : 93.750 FPS (512 SPF)
Bit depth : 16 bits
Compression mode : Lossless
Stream size : 2.54 GiB (3%)
Title : AVO, Ю.Сербин
Language : Russian
Default : No
Forced : No

Audio #6
ID : 7
Format : DTS XLL
Format/Info : Digital Theater Systems
Commercial name : DTS-HD Master Audio
Codec ID : A_DTS
Duration : 3 h 3 min
Bit rate mode : Variable
Bit rate : 1 982 kb/s
Channel(s) : 6 channels
Channel layout : C L R Ls Rs LFE
Sampling rate : 48.0 kHz
Frame rate : 93.750 FPS (512 SPF)
Bit depth : 16 bits
Compression mode : Lossless
Stream size : 2.54 GiB (3%)
Title : AVO, В.Горчаков
Language : Russian
Default : No
Forced : No

Audio #7
ID : 8
Format : DTS XLL
Format/Info : Digital Theater Systems
Commercial name : DTS-HD Master Audio
Codec ID : A_DTS
Duration : 3 h 3 min
Bit rate mode : Variable
Bit rate : 2 002 kb/s
Channel(s) : 6 channels
Channel layout : C L R Ls Rs LFE
Sampling rate : 48.0 kHz
Frame rate : 93.750 FPS (512 SPF)
Bit depth : 16 bits
Compression mode : Lossless
Stream size : 2.57 GiB (3%)
Title : AVO, В.Котов
Language : Russian
Default : No
Forced : No

Audio #8
ID : 9
Format : AC-3
Format/Info : Audio Coding 3
Commercial name : Dolby Digital
Codec ID : A_AC3
Duration : 3 h 3 min
Bit rate mode : Constant
Bit rate : 448 kb/s
Channel(s) : 6 channels
Channel layout : L R C LFE Ls Rs
Sampling rate : 48.0 kHz
Frame rate : 31.250 FPS (1536 SPF)
Bit depth : 16 bits
Compression mode : Lossy
Stream size : 587 MiB (1%)
Title : MVO, "Цікава ідея"
Language : Ukrainian
Service kind : Complete Main
Default : No
Forced : No

Audio #9
ID : 10
Format : DTS XLL
Format/Info : Digital Theater Systems
Commercial name : DTS-HD Master Audio
Codec ID : A_DTS
Duration : 3 h 3 min
Bit rate mode : Variable
Bit rate : 2 947 kb/s
Channel(s) : 6 channels
Channel layout : C L R Ls Rs LFE
Sampling rate : 48.0 kHz
Frame rate : 93.750 FPS (512 SPF)
Bit depth : 24 bits
Compression mode : Lossless
Delay relative to video : 5 ms
Stream size : 3.77 GiB (5%)
Language : English
Default : No
Forced : No

Text #1
ID : 11
Format : UTF-8
Codec ID : S_TEXT/UTF8
Codec ID/Info : UTF-8 Plain Text
Duration : 2 h 59 min
Bit rate : 43 b/s
Count of elements : 1630
Stream size : 57.6 KiB (0%)
Language : Russian
Default : Yes
Forced : No

Text #2
ID : 12
Format : UTF-8
Codec ID : S_TEXT/UTF8
Codec ID/Info : UTF-8 Plain Text
Duration : 2 h 56 min
Bit rate : 43 b/s
Count of elements : 1209
Stream size : 56.6 KiB (0%)
Language : Russian
Default : No
Forced : No

Text #3
ID : 13
Format : UTF-8
Codec ID : S_TEXT/UTF8
Codec ID/Info : UTF-8 Plain Text
Duration : 2 h 57 min
Bit rate : 41 b/s
Count of elements : 2273
Stream size : 54.4 KiB (0%)
Language : English
Default : No
Forced : No

Menu
00:00:00.000 : :Глава 01
00:17:02.500 : :Глава 02
00:28:30.083 : :Глава 03
00:52:28.833 : :Глава 04
01:02:25.250 : :Глава 05
01:08:43.083 : :Глава 06
01:36:31.375 : :Глава 07
01:50:30.916 : :Глава 08
02:00:17.625 : :Глава 09
02:16:09.041 : :Глава 10
02:30:52.708 : :Глава 11
02:51:15.500 : :Глава 12
pb.wtf



Скачать Охотник на оленей через торрент https://c.radikal.ru/c08/1907/4d/071f0abd0116.png Скачать фильм Охотник на оленей через торрент бесплантно в хорошем качестве Описание: История о трех американцах русского происхождения - их жизни до, во время и после войны во Вьетнаме.✦ Рейтинг: MPAA: R - Лицам ... 10 10 2
Info! Золотая раздача, скачанное не засчитывается.
Торрент: Зарегистрирован [2019-07-22 16:21] · скачан: 12 раз
Статус: √ проверено
Размер: 73.97 GB
Как cкачать? Как скачать Охотник на оленей через торрент | qTorrent

% Раздел Тема Автор DL S | L
Ultra HD (UHD: 2K, 4K, 8K) — видео сверхвысокой чёткости [ 58.68 GB ] Охотник на оленей / The Deer Hunter [1978 военный UHD BDRip 2160p] 3xMVO + 5xAVO sheker187 Скачать
1 | 0

28-11-2019 20:33  

Отключить всю рекламу на сайте

    Дорогой пользователь! Огромная просьба, поблагодарите релизера, оцените раздачу и оставьте свои комментарий, если Вы скачали Охотник на оленей через торрент бесплатно! Внесите свою лепту в развитие PiratBit!
    Комментировать посты могут только пользователи прошедшие не сложную регистрацию
    Показать сообщения:    

    Охотник на оленей через торрент
    Скачать бесплатно Охотник на оленей
    Охотник на оленей скачать торрент
    Охотник на оленей смотреть онлайн
    Cкачать фильм Охотник на оленей бесплатно
    Охотник на оленей скачать торрент в хорошем качестве
    Охотник на оленей смотреть онлайн бесплатно в хорошем качестве


    Вы не можете начинать темы
    Вы не можете отвечать на сообщения
    Вы не можете редактировать свои сообщения
    Вы не можете удалять свои сообщения
    Вы не можете голосовать в опросах
    Вы не можете прикреплять файлы к сообщениям
    Вы можете скачивать файлы