Ссылка на приватное зеркало нашего сайта всего за 1$. Внимание количество ограничено!!!

2 сезон

iTunes

1 сезон

1

2 сезон

2 сезон

iTunes

1 сезон

RePack

30

Ultimate

ВАЖНО

ИГРА 18+

pack

RePack

MK11
pack

Забери бонус

RePack

jed

!!Акция!!

Alien_Rage

RePack

fifa19

RePack

Assassins Creed: Odyssey

RePack

NEED FOR SPEED™ PAYBACK

4 сезон

9 сезон

Бесстыжие 9 сезон

Все сериалы

все сериалы на PB.wtf

RePack

FAR CRY 5
  

Белый воротничок / White Collar / Сезон: 1-6 / Серии: 1-81 из 81 (Джефф Истен) [2009-2014, детектив, криминал, драма, комедия, WEB-DLRip] 2x[MVO] (Первый канал, NewStudio) pb.wtf

Белый воротничок через торрент pb.wtf

Раздают: 1 [ 216 KB/s ]
Размер: 35.55 GB | Добавлен: 1 год 4 мес. назад | Торрент скачан:84 раза
Скачать  

22-07-2019 17:32 Белый воротничок Скачать торрент  


Белый воротничок | White Collar

Год выпуска: 2009-2014
Страна: США
Жанр: детектив, криминал, драма, комедия
Продолжительность: ~ 00:43:00
Перевод 1 сезон: Профессиональный (многоголосый закадровый) - Первый канал
Перевод 2-6 сезон: Профессиональный (многоголосый закадровый) - NewStudio

Режиссёр: Джефф Истен
В ролях: Мэттью Бомер, Тим ДиКэй, Тиффани Тиссен, Вилли Гарсон и др.
Описание: Сериал рассказывает о сотрудничестве гениального мошенника и агента ФБР. Нил Кэффри, невероятно обаятельный преступный ум, наконец-то был пойман своим извечным врагом, отличным агентом государственной безопасности Питером Берком. Когда Нил бежит из тюрьмы, чтобы найти свою пропавшую любовь, Питер ловит его еще раз. Нил предлагает ему не торопиться с отправкой в тюрьму, и рассмотреть возможность сотрудничества. Ведь Нил мог бы помочь поймать самых “элитных” преступников, “белых воротничков” преступного мира. Питер понимает, что интуиция и преступный опыт Нила, которых нет у законопослушного агента, могут стать хорошим подспорьем в борьбе с криминалом.
rating

Качество: WEB-DLRip
Формат: AVI
Видео кодек: XviD
Аудио кодек: MP3
Видео: XviD, ~ 1000 - 1500 Кбит/с, 624x352 - 720x400
Аудио 1: MP3, 48 kHz, 2 ch, 128 kbps - Rus
Аудио 2: MP3, 48 kHz, 2 ch, 128 kbps - Eng
General
Complete name : E:\White Collar\white.collar.s01.web-dl_NewStudio.TV\White.Collar.s01e01.WEBDLRip.NewStudio.TV.avi
Format : AVI
Format/Info : Audio Video Interleave
File size : 600 MiB
Duration : 1 h 0 min
Overall bit rate mode : Variable
Overall bit rate : 1 384 kb/s
Writing application : VirtualDubMod 1.5.10.2 (build 2540/release)
Writing library : VirtualDubMod build 2540/release

Video
ID : 0
Format : MPEG-4 Visual
Format profile : Advanced Simple@L5
Format settings : BVOP2
Format settings, BVOP : 2
Format settings, QPel : No
Format settings, GMC : No warppoints
Format settings, Matrix : Default (MPEG)
Codec ID : XVID
Codec ID/Hint : XviD
Duration : 1 h 0 min
Bit rate : 1 110 kb/s
Width : 624 pixels
Height : 352 pixels
Display aspect ratio : 16:9
Frame rate : 23.976 (24000/1001) FPS
Color space : YUV
Chroma subsampling : 4:2:0
Bit depth : 8 bits
Scan type : Progressive
Compression mode : Lossy
Bits/(Pixel*Frame) : 0.211
Stream size : 481 MiB (80%)
Writing library : XviD 1.2.1 (UTC 2008-12-04)

Audio #1
ID : 1
Format : MPEG Audio
Format version : Version 1
Format profile : Layer 3
Format settings : Joint stereo / MS Stereo
Mode : Joint stereo
Mode extension : MS Stereo
Codec ID : 55
Codec ID/Hint : MP3
Duration : 1 h 0 min
Bit rate mode : Constant
Bit rate : 128 kb/s
Channel(s) : 2 channels
Sampling rate : 48.0 kHz
Compression mode : Lossy
Stream size : 55.5 MiB (9%)
Alignment : Aligned on interleaves
Interleave, duration : 42 ms (1.00 video frame)
Interleave, preload duratio : 504 ms

Audio #2
ID : 2
Format : MPEG Audio
Format version : Version 1
Format profile : Layer 3
Format settings : Joint stereo / MS Stereo
Mode : Joint stereo
Mode extension : MS Stereo
Codec ID : 55
Codec ID/Hint : MP3
Duration : 1 h 0 min
Bit rate mode : Variable
Bit rate : 128 kb/s
Channel(s) : 2 channels
Sampling rate : 48.0 kHz
Compression mode : Lossy
Stream size : 55.9 MiB (9%)
Alignment : Aligned on interleaves
Interleave, duration : 24 ms (0.58 video frame)
Interleave, preload duratio : 312 ms
Writing library : LAME3.90.
Encoding settings : -m j -V 4 -q 2 -lowpass 17.6 --abr
скриншот  скриншот  скриншот  скриншот  скриншот  
pb.wtf



Скачать Белый воротничок через торрент http://i63.fastpic.ru/big/2014/1108/75/c8cbbc611edd44b5a043533e328b0375.png Скачать фильм Белый воротничок через торрент бесплантно в хорошем качестве Описание: Сериал рассказывает о сотрудничестве гениального мошенника и агента ФБР. Нил Кэффри, невероятно обаятельный преступный ум, ... 10 10 2
Торрент: Зарегистрирован [2019-07-22 17:32] · скачан: 84 раз
Статус: √ проверено
Размер: 35.55 GB
Как cкачать? Как скачать Белый воротничок через торрент | qTorrent

28-11-2019 20:33  

Отключить всю рекламу на сайте

    Дорогой пользователь! Огромная просьба, поблагодарите релизера, оцените раздачу и оставьте свои комментарий, если Вы скачали Белый воротничок через торрент бесплатно! Внесите свою лепту в развитие PiratBit!
    Комментировать посты могут только пользователи прошедшие не сложную регистрацию
    Показать сообщения:    

    Белый воротничок через торрент
    Скачать бесплатно Белый воротничок
    Белый воротничок скачать торрент
    Белый воротничок смотреть онлайн
    Cкачать фильм Белый воротничок бесплатно
    Белый воротничок скачать торрент в хорошем качестве
    Белый воротничок смотреть онлайн бесплатно в хорошем качестве


    Вы не можете начинать темы
    Вы не можете отвечать на сообщения
    Вы не можете редактировать свои сообщения
    Вы не можете удалять свои сообщения
    Вы не можете голосовать в опросах
    Вы не можете прикреплять файлы к сообщениям
    Вы можете скачивать файлы