Ссылка на приватное зеркало нашего сайта всего за 1$. Внимание количество ограничено!!!

2 сезон

iTunes

1 сезон

1

iTunes

iTunes

iTunes

1 сезон

RePack

30

ИГРА 18+

pack

ВАЖНО

!!Акция!!

Alien_RageХит недели

RePack

MK11
pack

Забери бонус

RePack

jed

!!Акция!!

Alien_Rage

RePack

fifa19

RePack

Assassins Creed: Odyssey

RePack

NEED FOR SPEED™ PAYBACK

4 сезон

9 сезон

Бесстыжие 9 сезон

Все сериалы

все сериалы на PB.wtf

RePack

FAR CRY 5
  

Сердце ангела / Сезон: 1 / Серии: 1-8 из 8 (Илья Казанков) [2016, детектив, HDTVRip] pb.wtf

Сердце ангела через торрент pb.wtf

Размер: 4.35 GB | Добавлен: 1 год 3 мес. назад | Торрент скачан:86 раз
Скачать  

22-07-2019 18:36 Сердце ангела Скачать торрент  

Сердце ангела Год выпуска: 2016
Страна: Россия
Жанр: детектив
Продолжительность: ~ 00:50:00
Перевод: Не требуется
Субтитры: отсутствуют

Режиссер: Илья Казанков

rating

В ролях: Михаил Пореченков, Андрей Мерзликин, Пётр Фёдоров,Алёна Бабенко,Максим Тихонов,
Екатерина Климова

Описание: Коррумпированному полицейскому, оказавшемуся на грани смерти, пересаживают сердце донора — честного пожарного. Постепенно он превращается в другого человека и ему кажется, что он больше не может совершать черные дела… Ведь теперь у него другое сердце.

Качество: HDTVRip
Формат: AVI

Видео: XviD build 73, 704x400 (16:9), 25.000 fps, ~ 1340 Kbps (~ 0.195 bit/pixel)
Аудио: 48.0 kHz, AC3, 2/0 ch, 192 kbps
скриншот  скриншот  скриншот  скриншот  скриншот  

скриншот  скриншот  скриншот  скриншот  скриншот  

Общее
Полное имя : D:\Serdce.Angela.2014.XviD.HDTVRip.GeneralFilm\Serdce.Angela.01.avi
Формат : AVI
Формат/Информация : Audio Video Interleave
Размер файла : 557 Мбайт
Продолжительность : 50 м. 23 с.
Общий поток : 1545 Кбит/сек
Программа кодирования : VirtualDubMod 1.5.10.3 | www.virtualdub-fr.org || (build 2550/release)
Библиотека кодирования : VirtualDubMod build 2550/release

Видео
Идентификатор : 0
Формат : MPEG-4 Visual
Профиль формата : Advanced Simple@L5
Параметр BVOP формата : 1
Параметр QPel формата : Нет
Параметр GMC формата : Без точки перехода
Параметр матрицы формата : Выборочная
Идентификатор кодека : XVID
Идентификатор кодека/Подсказка : XviD
Продолжительность : 50 м. 23 с.
Битрейт : 1283 Кбит/сек
Ширина : 704 пикселя
Высота : 400 пикселей
Соотношение сторон : 16:9
Частота кадров : 25,000 кадров/сек
Цветовое пространство : YUV
Субдискретизация насыщенности : 4:2:0
Битовая глубина : 8 бит
Тип развёртки : Прогрессивная
Метод сжатия : С потерями
Бит/(Пиксели*Кадры) : 0.182
Размер потока : 462 Мбайт (83%)
Библиотека кодирования : XviD 73

Аудио
Идентификатор : 1
Формат : AC-3
Формат/Информация : Audio Coding 3
Расширение режима : CM (complete main)
Параметр Endianness формата : Big
Идентификатор кодека : 2000
Продолжительность : 50 м. 23 с.
Вид битрейта : Постоянный
Битрейт : 192 Кбит/сек
Каналы : 2 канала
Расположение каналов : Front: L R
Частота : 48,0 КГц
Частота кадров : 31,250 кадров/сек (1536 spf)
Метод сжатия : С потерями
Размер потока : 69,2 Мбайт (12%)
Выравнивание : Разделение по промежуткам

pb.wtf



Скачать Сердце ангела через торрент https://st.kp.yandex.net/images/film_iphone/iphone360_803899.jpg Скачать фильм Сердце ангела через торрент бесплантно в хорошем качестве Описание: Коррумпированному полицейскому, оказавшемуся на грани смерти, пересаживают сердце донора — честного пожарного. Постепенно он ... 10 10 4
Торрент: Зарегистрирован [2019-07-22 18:36] · скачан: 86 раз
Статус: √ проверено
Размер: 4.35 GB
Как cкачать? Как скачать Сердце ангела через торрент | qTorrent

% Раздел Тема Автор DL S | L
Наши сериалы [ 6.06 GB ] Сердце ангела / Сезон: 1 / Серии: 1-8 из 8 [2016 HDTVRip-AVC] bober100 Скачать
1 | 0
Наши сериалы [ 23.55 GB ] Сердце ангела / Сезон: 1 / Серии: 1-8 из 8 [2016 HDTV 1080i] bober100 Скачать
1 | 0
Наши сериалы [ 12.83 GB ] Сердце ангела / Сезон: 1 / Серии: 1-8 из 8 [2016 HDTVRip 720p] bober100 Скачать
1 | 0

28-11-2019 20:33  

Отключить всю рекламу на сайте

    Дорогой пользователь! Огромная просьба, поблагодарите релизера, оцените раздачу и оставьте свои комментарий, если Вы скачали Сердце ангела через торрент бесплатно! Внесите свою лепту в развитие PiratBit!
    Комментировать посты могут только пользователи прошедшие не сложную регистрацию
    Показать сообщения:    

    Сердце ангела через торрент
    Скачать бесплатно Сердце ангела
    Сердце ангела скачать торрент
    Сердце ангела смотреть онлайн
    Cкачать фильм Сердце ангела бесплатно
    Сердце ангела скачать торрент в хорошем качестве
    Сердце ангела смотреть онлайн бесплатно в хорошем качестве


    Вы не можете начинать темы
    Вы не можете отвечать на сообщения
    Вы не можете редактировать свои сообщения
    Вы не можете удалять свои сообщения
    Вы не можете голосовать в опросах
    Вы не можете прикреплять файлы к сообщениям
    Вы можете скачивать файлы