Ссылка на приватное зеркало нашего сайта всего за 1$. Внимание количество ограничено!!!

2 сезон

iTunes

1 сезон

1

iTunes

iTunes

iTunes

1 сезон

RePack

30

ИГРА 18+

pack

ВАЖНО

!!Акция!!

Alien_RageХит недели

RePack

MK11
pack

Забери бонус

RePack

jed

!!Акция!!

Alien_Rage

RePack

fifa19

RePack

Assassins Creed: Odyssey

RePack

NEED FOR SPEED™ PAYBACK

4 сезон

9 сезон

Бесстыжие 9 сезон

Все сериалы

все сериалы на PB.wtf

RePack

FAR CRY 5
  

От любви до ненависти / Серии: 1-4 из 4 (Роман Барабаш) [2019, Мелодрама, WEB-DLRip] pb.wtf

От любви до ненависти через торрент pb.wtf

Размер: 2.38 GB | Добавлен: 1 год 3 мес. назад | Торрент скачан:44 раза
Скачать  

22-07-2019 19:33 От любви до ненависти Скачать торрент  

От любви до ненависти Год выпуска: 2019
Страна: Россия, Украина
Жанр: Мелодрама
Продолжительность: ~ 00:47:00 серия
Субтитры: отсутствуют

Режиссер: Роман Барабаш

В ролях: Дана Абызова, Дарья Легейда, Александр Давыдов, Оксана Жданова, Наталия Денисенко, Сергей Фролов, Олег Щербина, Максим Боряк

Описание: Катя случайно знакомится с Дмитрием, который приехал в провинцию из Киева. Молодые люди влюбляются друг в друга, Катя уверена, что между ними все серьезно. Но огромная любовь сменяется унижением и разочарованием - Дмитрий предает Катю. Ее сердце разбито, девушка вынуждена уехать из родного города - из-за Дмитрия она становится объектом всеобщих насмешек. Сломленная Катя уезжает в столицу, и только случайное знакомство с Гришей, четырехлетним сыном Дмитрия, помогает девушке вновь обрести себя и встретить настоящую любовь...

Качество: WEB-DLRip
Формат: AVI

Видео: 720x400 (1.80:1), 25 fps, XviD, ~1600 kbps avg, 0.222 bit/pixel
Аудио: 44.1 kHz, AC3 Dolby Digital, 2/0 (L,R) ch, ~ 192 kbps
скриншот  скриншот  скриншот  скриншот  скриншот  

General
Complete name : D:\От любви до ненависти.2019.WEB-DLRip. Files-x\01. От любви до ненависти.2019.WEB-DLRip. Files-x.avi
Format : AVI
Format/Info : Audio Video Interleave
File size : 601 MiB
Duration : 46 min 43 s
Overall bit rate : 1 798 kb/s
Movie name : 0
Writing application : V
Original source form/Name : M

Video
ID : 0
Format : MPEG-4 Visual
Format profile : Advanced Simple@L5
Format settings : BVOP2
Format settings, BVOP : 2
Format settings, QPel : No
Format settings, GMC : No warppoints
Format settings, Matrix : Default (MPEG)
Codec ID : XVID
Codec ID/Hint : XviD
Duration : 46 min 43 s
Bit rate : 1 596 kb/s
Width : 720 pixels
Height : 400 pixels
Display aspect ratio : 16:9
Frame rate : 25.000 FPS
Color space : YUV
Chroma subsampling : 4:2:0
Bit depth : 8 bits
Scan type : Progressive
Compression mode : Lossy
Bits/(Pixel*Frame) : 0.222
Stream size : 533 MiB (89%)
Writing library : XviD 1.2.1 (UTC 2008-12-04)

Audio
ID : 1
Format : AC-3
Format/Info : Audio Coding 3
Codec ID : 2000
Duration : 46 min 43 s
Bit rate mode : Constant
Bit rate : 192 kb/s
Channel(s) : 2 channels
Channel positions : Front: L R
Sampling rate : 44.1 kHz
Frame rate : 28.711 FPS (1536 SPF)
Bit depth : 16 bits
Compression mode : Lossy
Stream size : 64.2 MiB (11%)
Alignment : Split accross interleaves
Interleave, duration : 40 ms (1.00 video frame)
Interleave, preload duratio : 500 ms
Service kind : Complete Main

pb.wtf



Скачать От любви до ненависти через торрент https://d.radikal.ru/d13/1907/35/a24e9a7061a4.jpg Скачать фильм От любви до ненависти через торрент бесплантно в хорошем качестве Описание: Катя случайно знакомится с Дмитрием, который приехал в провинцию из Киева. Молодые люди влюбляются друг в друга, Катя уверена, ... 10 10 3
Торрент: Зарегистрирован [2019-07-22 19:33] · скачан: 44 раз
Статус: √ проверено
Размер: 2.38 GB
Как cкачать? Как скачать От любви до ненависти через торрент | qTorrent

% Раздел Тема Автор DL S | L
Наши сериалы [ 8.38 GB ] От любви до ненависти / Серии: 1-4 из 4 [2019 Мело HDTV 1080i] bober100 Скачать
2 | 0
Наши сериалы [ 2.32 GB ] От любви до ненависти / Серии: 1-4 из 4 [2019 Мело WEB-DLRip-AVC] bober100 Скачать
1 | 0

28-11-2019 20:33  

Отключить всю рекламу на сайте

    Дорогой пользователь! Огромная просьба, поблагодарите релизера, оцените раздачу и оставьте свои комментарий, если Вы скачали От любви до ненависти через торрент бесплатно! Внесите свою лепту в развитие PiratBit!
    Комментировать посты могут только пользователи прошедшие не сложную регистрацию
    Показать сообщения:    

    От любви до ненависти через торрент
    Скачать бесплатно От любви до ненависти
    От любви до ненависти скачать торрент
    От любви до ненависти смотреть онлайн
    Cкачать фильм От любви до ненависти бесплатно
    От любви до ненависти скачать торрент в хорошем качестве
    От любви до ненависти смотреть онлайн бесплатно в хорошем качестве


    Вы не можете начинать темы
    Вы не можете отвечать на сообщения
    Вы не можете редактировать свои сообщения
    Вы не можете удалять свои сообщения
    Вы не можете голосовать в опросах
    Вы не можете прикреплять файлы к сообщениям
    Вы можете скачивать файлы