Ссылка на приватное зеркало нашего сайта всего за 1$. Внимание количество ограничено!!!

2 сезон

iTunes

1 сезон

1

iTunes

iTunes

iTunes

1 сезон

RePack

30

ИГРА 18+

pack

ВАЖНО

!!Акция!!

Alien_RageХит недели

RePack

MK11
pack

Забери бонус

RePack

jed

!!Акция!!

Alien_Rage

RePack

fifa19

RePack

Assassins Creed: Odyssey

RePack

NEED FOR SPEED™ PAYBACK

4 сезон

9 сезон

Бесстыжие 9 сезон

Все сериалы

все сериалы на PB.wtf

RePack

FAR CRY 5
  

Рая знает всё! / Сезон: 1 / Серии: 1-50 из 50 (Анатолий Артамонов, Руслан Паушу) [2019, Комедия, мелодрама, WEB-DLRip] pb.wtf

Рая знает всё! через торрент pb.wtf

Размер: 30.6 GB | Добавлен: 1 год 2 мес. назад | Торрент скачан:6 раз
Скачать  

22-07-2019 19:45 Рая знает всё! Скачать торрент  

Рая знает всё!
Год выпуска: 2019
Страна: Россия
Жанр: Комедия, мелодрама
Продолжительность: ~ 00:49:00
Субтитры: отсутствуют

Режиссер: Анатолий Артамонов, Руслан Паушу



В ролях: Анастасия Веденская, Сергей Губанов, Сергей Рудзевич, Виолетта Давыдовская, Любовь Германова, Елена Волхонская, Ирина Пулина, Елена Муравьёва, Евгения Шипова, Елена Полякова, Валерия Яковлева, Елена Дубровская, Дмитрий Калистратов, Андрей Москвичёв и др.

Описание: Рая Полуйчик – женщина энергичная и активная. Она работает парикмахером в салоне эконом-класса, очень хочет замуж и детишек, но на любовном фронте терпит поражение за поражением. Ее новая надежда – интеллигентный участковый Владимир Костюков, прибывший из Москвы. Несмотря на сопротивление, Рая немедленно берет его под крыло, помогая в быту и в работе. Но плавному развитию отношений Раи и Костюкова постоянно что-то мешает: к Костюкову возвращается жена, которая передумала разводиться, за Раей бегает ее бывший ухажер и влюбленный скульптор, а некоторые «подруги» так и вовсе распускают некрасивые слухи и пытаются отбить Костюкова!

Качество: WEB-DLRip
Формат: AVI

Видео: 720x400 (1.80:1), 25 fps, XviD ~1600 kbps avg, 0.222 bit/pixel
Аудио: 48.0 kHz, AC3 Dolby Digital, 2/0 (L,R) ch, ~ 192 kbps
скриншот   скриншот   скриншот   скриншот   скриншот   скриншот   скриншот  
скриншот  

General
Complete name : D:\Рая знает всё!.2019. WEB-DLRip. Files-x\01. Рая знает всё!.2019. WEB-DLRip. Files-x.avi
Format : AVI
Format/Info : Audio Video Interleave
File size : 628 MiB
Duration : 48 min 45 s
Overall bit rate : 1 802 kb/s
Writing application : VirtualDubMod 1.5.10.3 | www.virtualdub-fr.org || (build 2550/release)
Writing library : VirtualDubMod build 2550/release

Video
ID : 0
Format : MPEG-4 Visual
Format profile : Advanced Simple@L5
Format settings : BVOP1 / Custom Matrix
Format settings, BVOP : 1
Format settings, QPel : No
Format settings, GMC : No warppoints
Format settings, Matrix : Custom
Codec ID : XVID
Codec ID/Hint : XviD
Duration : 48 min 45 s
Bit rate : 1 600 kb/s
Width : 720 pixels
Height : 400 pixels
Display aspect ratio : 16:9
Frame rate : 25.000 FPS
Color space : YUV
Chroma subsampling : 4:2:0
Bit depth : 8 bits
Scan type : Progressive
Compression mode : Lossy
Bits/(Pixel*Frame) : 0.222
Stream size : 558 MiB (89%)
Writing library : XviD 73

Audio
ID : 1
Format : AC-3
Format/Info : Audio Coding 3
Codec ID : 2000
Duration : 48 min 45 s
Bit rate mode : Constant
Bit rate : 192 kb/s
Channel(s) : 1 channel
Channel positions : Front: C
Sampling rate : 48.0 kHz
Frame rate : 31.250 FPS (1536 SPF)
Bit depth : 16 bits
Compression mode : Lossy
Stream size : 66.9 MiB (11%)
Alignment : Split accross interleaves
Interleave, duration : 40 ms (1.00 video frame)
Interleave, preload duratio : 500 ms
Service kind : Complete Main

Внимание! Раздача ведётся путём добавления новых серий; при каждом добавлении создаётся новый торрент.
Чтобы начать докачку новой серии, пользователям необходимо сделать следующее:
1. Остановить скачивание;
2. Удалить старый торрент у себя из клиента (старые серии удалять не надо);
3. Скачать новый торрент и запустить его у себя в клиенте вместо старого, при этом указать клиенту путь в старую папку куда и должно происходить скачивание новых серий. Ваш клиент при этом должен произвести хеширование (проверку) старой папки и будет докачивать только те серии, которых у вас ещё нет. Старые серии при этом не удаляются, а продолжают раздаваться! Eсли вы уже удалили старые серии, то предотвратить повторную закачку старых серий можно, отжав галочку в соответствующих местах при запуске нового торрента.
pb.wtf



Скачать Рая знает всё! через торрент http://picplus.ru/img/1907/22/cdfa0509.jpg Скачать фильм Рая знает всё! через торрент бесплантно в хорошем качестве Описание: Рая Полуйчик – женщина энергичная и активная. Она работает парикмахером в салоне эконом-класса, очень хочет замуж и детишек, но ... 9.1 10 11
Торрент: Зарегистрирован [2019-08-16 09:20] · скачан: 6 раз
Статус: √ проверено
Размер: 30.6 GB
Как cкачать? Как скачать Рая знает всё! через торрент | qTorrent

% Раздел Тема Автор DL S | L
Наши сериалы [ 30.44 GB ] Рая знает всё! / Сезон: 1 / Серии: 1-50 из 50 [2019 WEBRip-AVC] bober100 Скачать
1 | 0
Наши сериалы [ 70.71 GB ] Рая знает всё! / Сезон: 1 / Серии: 1-50 из 50 [2019 HDTVRip 720p] bober100 Скачать
1 | 0

28-11-2019 20:33  

Отключить всю рекламу на сайте

    Дорогой пользователь! Огромная просьба, поблагодарите релизера, оцените раздачу и оставьте свои комментарий, если Вы скачали Рая знает всё! через торрент бесплатно! Внесите свою лепту в развитие PiratBit!
    Комментировать посты могут только пользователи прошедшие не сложную регистрацию
    Показать сообщения:    

    Рая знает всё! через торрент
    Скачать бесплатно Рая знает всё!
    Рая знает всё! скачать торрент
    Рая знает всё! смотреть онлайн
    Cкачать фильм Рая знает всё! бесплатно
    Рая знает всё! скачать торрент в хорошем качестве
    Рая знает всё! смотреть онлайн бесплатно в хорошем качестве


    Вы не можете начинать темы
    Вы не можете отвечать на сообщения
    Вы не можете редактировать свои сообщения
    Вы не можете удалять свои сообщения
    Вы не можете голосовать в опросах
    Вы не можете прикреплять файлы к сообщениям
    Вы можете скачивать файлы