Ссылка на приватное зеркало всего за 1$. Внимание количество ограничено!!!

iTunes

1+1

iTunes

мы

WEB-DL

1

iTunes

Чернобыль

iTunes

Ральф против интернета

Лицензия

ПШазам

Лицензия

Оно 2

Лицензия

30
pack

Вам бонус

ВАЖНО

!!Акция!!

Alien_RageХит недели

RePack

Resident Evil 21

ИГРА 18+

pack

RePack

jed

!!Акция!!

Alien_Rage

RePack

fifa19

RePack

Assassins Creed: Odyssey

RePack

NEED FOR SPEED™ PAYBACK

3 сезон

9 сезон

Бесстыжие 9 сезон

Все сериалы

все сериалы на PB.wtf

RePack

FAR CRY 5
Ребята, катастрофически не хватает 1900р. для оплаты серверов за Октябрь (всвязи с блокировками трафик упал в 3 раза), 1-2р., выручайте.
  

Хеллбой / Hellboy (Нил Маршалл) [2019, фэнтези, боевик, приключения, BDRip-AVC] DUB [iTunes] pb.wtf

Хеллбой через торрент pb.wtf

Раздают: 5 [ 0 KB/s ]
Размер: 2.12 GB | Добавлен: 4 мес. 21 д. назад | Торрент скачан:149 раз
Скачать  

23-07-2019 00:58 Хеллбой Скачать торрент  

Хеллбой / Hellboy
Год выпуска: 2019
Страна: США Великобритания Болгария
Жанр: фэнтези, боевик, приключения
Продолжительность: 02:01:02
Перевод: Дублированный | iTunes
Субтитры: Русские (форс., полные), Английские (полные)

Режиссер: Нил Маршалл

rating

В ролях:

Дэвид Харбор, Иэн МакШейн, Милла Йовович, Марк Стэнли, Брин Глисон, Надя Керанова, Мария Тепавичарова, Ана Тобакова, Пенелопа Митчелл, Терри Рендал

Описание:

Близится час битвы Хеллбоя с Кровавой королевой, жаждущей отомстить всему человечеству за века в заточении. Оказавшись в эпицентре столкновения миров людей и монстров, Хеллбою придется пройти через ад, чтобы предотвратить надвигающийся апокалипсис.

Качество: BDRip-AVC
Формат: MKV

Видео: 1152x480 (2.40:1), 23,976 fps, x264 ~2 127 kbps avg, 0.160 bit/pixel
Аудио: 48 kHz, AC3 Dolby Digital, 3/2 (L,C,R,l,r) + LFE ch, ~384.00 kbps avg | RUS (iTunes)
скриншот  скриншот  скриншот  скриншот  скриншот  

Общее
Уникальный идентификатор : 274663842711756920817619300616637882656 (0xCEA254F97D3F89213A9AA676C105A120)
Полное имя : F:OlLanDGroupHellboy.2019.BDRip(AVC).OlLanDGroup.mkv
Формат : Matroska
Версия формата : Version 4 / Version 2
Размер файла : 2,12 Гбайт
Продолжительность : 2 ч. 1 м.
Общий поток : 2513 Кбит/сек
Название фильма : Hellboy 2019 #TorpedoUK#
Дата кодирования : UTC 2019-07-23 00:28:20
Программа кодирования : mkvmerge v29.0.0 ('Like It Or Not') 64-bit
Библиотека кодирования : libebml v1.3.6 + libmatroska v1.4.9

Видео
Идентификатор : 1
Формат : AVC
Формат/Информация : Advanced Video Codec
Профиль формата : High@L4.1
Параметр CABAC формата : Да
Параметр ReFrames формата : 10 кадров
Идентификатор кодека : V_MPEG4/ISO/AVC
Продолжительность : 2 ч. 1 м.
Битрейт : 2127 Кбит/сек
Ширина : 1152 пикселя
Высота : 480 пикселей
Соотношение сторон : 2,40:1
Режим частоты кадров : Постоянный
Частота кадров : 23,976 (24000/1001) кадра/сек
Цветовое пространство : YUV
Субдискретизация насыщенности : 4:2:0
Битовая глубина : 8 бит
Тип развёртки : Прогрессивная
Бит/(Пиксели*Кадры) : 0.160
Размер потока : 1,80 Гбайт (85%)
Библиотека кодирования : x264 core 146 r2538 121396c
Настройки программы : cabac=1 / ref=10 / deblock=1:-3:-3 / analyse=0x3:0x113 / me=umh / subme=11 / psy=1 / psy_rd=0.97:0.05 / mixed_ref=1 / me_range=48 / chroma_me=1 / trellis=2 / 8x8dct=1 / cqm=0 / deadzone=21,11 / fast_pskip=1 / chroma_qp_offset=-3 / threads=6 / lookahead_threads=1 / sliced_threads=0 / nr=0 / decimate=1 / interlaced=0 / bluray_compat=0 / constrained_intra=0 / bframes=11 / b_pyramid=2 / b_adapt=2 / b_bias=0 / direct=3 / weightb=1 / open_gop=0 / weightp=2 / keyint=240 / keyint_min=23 / scenecut=40 / intra_refresh=0 / rc_lookahead=40 / rc=2pass / mbtree=0 / bitrate=2127 / ratetol=1.0 / qcomp=0.60 / qpmin=0 / qpmax=69 / qpstep=4 / cplxblur=20.0 / qblur=0.5 / vbv_maxrate=50000 / vbv_bufsize=62500 / nal_hrd=none / filler=0 / ip_ratio=1.40 / pb_ratio=1.30 / aq=1:1.00
Default : Да
Forced : Нет

Аудио
Идентификатор : 2
Формат : AC-3
Формат/Информация : Audio Coding 3
Расширение режима : CM (complete main)
Параметр Endianness формата : Big
Идентификатор кодека : A_AC3
Продолжительность : 2 ч. 1 м.
Вид битрейта : Постоянный
Битрейт : 384 Кбит/сек
Каналы : 6 каналов
Расположение каналов : Front: L C R, Side: L R, LFE
Частота : 48,0 КГц
Частота кадров : 31,250 кадров/сек (1536 spf)
Битовая глубина : 16 бит
Метод сжатия : С потерями
Размер потока : 332 Мбайт (15%)
Заголовок : Dub [iTunes]
Язык : Russian
Default : Да
Forced : Нет

Текст #1
Идентификатор : 3
Формат : UTF-8
Идентификатор кодека : S_TEXT/UTF8
Идентификатор кодека/Информация : UTF-8 Plain Text
Продолжительность : 1 ч. 48 м.
Битрейт : 1 бит/сек
Count of elements : 21
Размер потока : 1,01 Кбайт (0%)
Заголовок : Forced [seleZen]
Язык : Russian
Default : Да
Forced : Нет

Текст #2
Идентификатор : 4
Формат : UTF-8
Идентификатор кодека : S_TEXT/UTF8
Идентификатор кодека/Информация : UTF-8 Plain Text
Продолжительность : 2 ч. 0 м.
Битрейт : 85 бит/сек
Count of elements : 1543
Размер потока : 75,7 Кбайт (0%)
Заголовок : Full [Enigma] (cens.)
Язык : Russian
Default : Нет
Forced : Нет

Текст #3
Идентификатор : 5
Формат : UTF-8
Идентификатор кодека : S_TEXT/UTF8
Идентификатор кодека/Информация : UTF-8 Plain Text
Продолжительность : 2 ч. 0 м.
Битрейт : 84 бит/сек
Count of elements : 1547
Размер потока : 74,4 Кбайт (0%)
Заголовок : Full [FOCS] (no cens.)
Язык : Russian
Default : Нет
Forced : Нет

Текст #4
Идентификатор : 6
Формат : UTF-8
Идентификатор кодека : S_TEXT/UTF8
Идентификатор кодека/Информация : UTF-8 Plain Text
Продолжительность : 2 ч. 0 м.
Битрейт : 53 бит/сек
Count of elements : 1528
Размер потока : 46,7 Кбайт (0%)
Заголовок : Full
Язык : English
Default : Нет
Forced : Нет

Меню
00:00:00.000 : en:00:00:00.000
00:08:54.284 : en:00:08:54.284
00:14:41.714 : en:00:14:41.714
00:22:34.853 : en:00:22:34.853
00:30:12.602 : en:00:30:12.602
00:35:48.730 : en:00:35:48.730
00:43:50.461 : en:00:43:50.461
00:53:17.611 : en:00:53:17.611
01:01:09.791 : en:01:01:09.791
01:09:24.786 : en:01:09:24.786
01:17:32.606 : en:01:17:32.606
01:26:07.579 : en:01:26:07.579
01:28:37.896 : en:01:28:37.896
01:37:58.456 : en:01:37:58.456
01:45:49.969 : en:01:45:49.969
01:51:06.660 : en:01:51:06.660

pb.wtf



Скачать Хеллбой через торрент https://a.radikal.ru/a18/1907/1e/c95fcb0bde0f.png Скачать фильм Хеллбой через торрент бесплантно в хорошем качестве Описание: Близится час битвы Хеллбоя с Кровавой королевой, жаждущей отомстить всему человечеству за века в заточении. Оказавшись в ... 9.8 10 6
Торрент: Зарегистрирован [2019-07-23 00:58] · скачан: 149 раз
Статус: √ проверено
Размер: 2.12 GB
Как cкачать? Как скачать Хеллбой через торрент | qTorrent

% Раздел Тема Автор DL S | L
Официальные cаундтреки к зарубежным фильмам [ 302 MB ] OST - Хеллбой / Hellboy [Music by Benjamin Wallfisch] 2019 / FLAC / Lossless / Score bober100 Скачать
2 | 0
Фильмы 2019 [DVDrip, WEB-DLRip, HDrip] (DUB, MVO) [ 2.42 GB ] Хеллбой / Hellboy [2019 HDRip-AVC] DUB [] MVO - ExKinoRay Enigma2010 Скачать
24 | 0
Фильмы 2006-2008 [ 2.27 GB ] Хеллбой II: Золотая армия / Hellboy II: The Golden Army [2008 BDRip] - [] Twi7ter Скачать
8 | 1
Фильмы 2006-2008 [ 1.46 GB ] Хеллбой II: Золотая армия / Hellboy II: The Golden Army [2008 BDRip] - [] Twi7ter Скачать
18 | 1
Фильмы 2001-2005 [ 2.18 GB ] Хеллбой: Герой из пекла / Hellboy [2004 BDRip] - [] Twi7ter Скачать
14 | 2
Фильмы 2001-2005 [ 1.46 GB ] Хеллбой: Герой из пекла / Hellboy [2004 BDRip] - [] Twi7ter Скачать
18 | 2
Ultra HD (UHD: 2K, 4K, 8K) — видео сверхвысокой чёткости [ 13.67 GB ] Хеллбой / Hellboy [2019 UHD BDRip 2160p] DUB [] +MVO [СВ Студия] bober100 Скачать
2 | 0

28-11-2019 20:33  

Отключить всю рекламу на сайте

    Дорогой пользователь! Огромная просьба, поблагодарите релизера, оцените раздачу и оставьте свои комментарий, если Вы скачали Хеллбой через торрент бесплатно! Внесите свою лепту в развитие PiratBit!
    Комментировать посты могут только пользователи прошедшие не сложную регистрацию
    Показать сообщения:    

    Хеллбой через торрент
    Скачать бесплатно Хеллбой
    Хеллбой скачать торрент
    Хеллбой смотреть онлайн
    Cкачать фильм Хеллбой бесплатно
    Хеллбой скачать торрент в хорошем качестве
    Хеллбой смотреть онлайн бесплатно в хорошем качестве


    Вы не можете начинать темы
    Вы не можете отвечать на сообщения
    Вы не можете редактировать свои сообщения
    Вы не можете удалять свои сообщения
    Вы не можете голосовать в опросах
    Вы не можете прикреплять файлы к сообщениям
    Вы можете скачивать файлы