новый адрес
Ссылка на приватное зеркало всего за 1$. Внимание количество ограничено!!!

iTunes

1+1

iTunes

мы

WEB-DL

1

iTunes

Чернобыль

iTunes

Ральф против интернета

Лицензия

ПШазам

Лицензия

Оно 2

Лицензия

30
pack

Вам бонус

ВАЖНО

!!Акция!!

Alien_RageХит недели

RePack

Resident Evil 21

ИГРА 18+

pack

RePack

jed

!!Акция!!

Alien_Rage

RePack

fifa19

RePack

Assassins Creed: Odyssey

RePack

NEED FOR SPEED™ PAYBACK

3 сезон

9 сезон

Бесстыжие 9 сезон

Все сериалы

все сериалы на PB.wtf

RePack

FAR CRY 5
Ребята, катастрофически не хватает 1900р. для оплаты серверов за Октябрь (всвязи с блокировками трафик упал в 3 раза), 1-2р., выручайте.
  

Домино / Domino (Брайан Де Пальма) [2019, Триллер, криминал, BDRip-AVC] DUB [iTunes] +MVO [HDRezka Studio] pb.wtf

Домино через торрент pb.wtf

Раздают: 1 [ 0 KB/s ]
Размер: 2.03 GB | Добавлен: 4 мес. 12 д. назад | Торрент скачан:53 раза
Скачать  

23-07-2019 01:37 Домино Скачать торрент  

Домино / Domino«Лучшее оружие против врага — другой враг»
Год выпуска: 2019
Страна: Дания, Франция, Италия, Бельгия, Нидерланды
Жанр: Триллер, криминал
Продолжительность: 01:29:16
Перевод:

#1: Дублированный | iTunes
#2: Профессиональный (многоголосый) | HDrezka Studio

Субтитры: Английские (полные)

Режиссер: Брайан Де Пальма

rating

В ролях:

Николай Костер-Валдау, Кэрис ван Хаутен, Гай Пирс, Сёрен Маллинг, Паприка Стеэн, Николас Бро, Томас В. Габриэльссон, Якоб Ульрик Ломанн, Элла-Джун Генрард, Эрик Эбони

Описание:

Офицер полиции Копенгагена жаждет отомстить за смерть напарника от руки некоего Имрана. Охоту на убийцу он ведёт в компании с любовницей погибшего коллеги. Однако оба они становятся жертвами агента ЦРУ, подставившего Имрана.

Качество: BDRip-AVC
Формат: MKV

Видео: 1024x540 (1.89:1), 23,976 fps, x264 ~2 237 kbps avg, 0.169 bit/pixel
Аудио#1: 48 kHz, AC3 Dolby Digital, 3/2 (L,C,R,l,r) + LFE ch, ~384.00 kbps avg | RUS (iTunes)
Аудио#2: 48 kHz, AC3 Dolby Digital, 2 (L,R) ch, ~192.00 kbps avg | RUS (HDRezka Studio)
Аудио#3: 48 kHz, AC3 Dolby Digital, 3/2 (L,C,R,l,r) + LFE ch, ~448.00 kbps avg | ENG
скриншот  скриншот  скриншот  скриншот  скриншот  

Общее
Уникальный идентификатор : 139707107964728413851913397974924159731 (0x691A9C3A7A54055761309E5E3B766AF3)
Полное имя : F:\OlLanDGroup\Domino.2019.BDRip(AVC).OlLanDGroup.mkv
Формат : Matroska
Версия формата : Version 4 / Version 2
Размер файла : 2,03 Гбайт
Продолжительность : 1 ч. 29 м.
Общий поток : 3262 Кбит/сек
Название фильма : Domino.2019 #TorpedoUK#
Дата кодирования : UTC 2019-07-30 20:19:54
Программа кодирования : mkvmerge v29.0.0 ('Like It Or Not') 64-bit
Библиотека кодирования : libebml v1.3.6 + libmatroska v1.4.9

Видео
Идентификатор : 1
Формат : AVC
Формат/Информация : Advanced Video Codec
Профиль формата : High@L4.1
Параметр CABAC формата : Да
Параметр ReFrames формата : 10 кадров
Идентификатор кодека : V_MPEG4/ISO/AVC
Продолжительность : 1 ч. 29 м.
Битрейт : 2237 Кбит/сек
Ширина : 1024 пикселя
Высота : 540 пикселей
Соотношение сторон : 1,896
Режим частоты кадров : Постоянный
Частота кадров : 23,976 (24000/1001) кадра/сек
Цветовое пространство : YUV
Субдискретизация насыщенности : 4:2:0
Битовая глубина : 8 бит
Тип развёртки : Прогрессивная
Бит/(Пиксели*Кадры) : 0.169
Размер потока : 1,39 Гбайт (69%)
Библиотека кодирования : x264 core 146 r2538 121396c
Настройки программы : cabac=1 / ref=10 / deblock=1:-3:-3 / analyse=0x3:0x113 / me=umh / subme=11 / psy=1 / psy_rd=1.00:0.03 / mixed_ref=1 / me_range=48 / chroma_me=1 / trellis=2 / 8x8dct=1 / cqm=0 / deadzone=21,11 / fast_pskip=1 / chroma_qp_offset=-3 / threads=6 / lookahead_threads=1 / sliced_threads=0 / nr=0 / decimate=1 / interlaced=0 / bluray_compat=0 / constrained_intra=0 / bframes=11 / b_pyramid=2 / b_adapt=2 / b_bias=0 / direct=3 / weightb=1 / open_gop=0 / weightp=2 / keyint=240 / keyint_min=23 / scenecut=40 / intra_refresh=0 / rc_lookahead=40 / rc=2pass / mbtree=0 / bitrate=2237 / ratetol=1.0 / qcomp=0.60 / qpmin=0 / qpmax=69 / qpstep=4 / cplxblur=20.0 / qblur=0.5 / vbv_maxrate=50000 / vbv_bufsize=62500 / nal_hrd=none / filler=0 / ip_ratio=1.40 / pb_ratio=1.30 / aq=1:1.00
Язык : English
Default : Да
Forced : Нет

Аудио #1
Идентификатор : 2
Формат : AC-3
Формат/Информация : Audio Coding 3
Расширение режима : CM (complete main)
Параметр Endianness формата : Big
Идентификатор кодека : A_AC3
Продолжительность : 1 ч. 29 м.
Вид битрейта : Постоянный
Битрейт : 384 Кбит/сек
Каналы : 6 каналов
Расположение каналов : Front: L C R, Side: L R, LFE
Частота : 48,0 КГц
Частота кадров : 31,250 кадров/сек (1536 spf)
Битовая глубина : 16 бит
Метод сжатия : С потерями
Размер потока : 245 Мбайт (12%)
Заголовок : DUB [iTunes]
Язык : Russian
Default : Да
Forced : Нет

Аудио #2
Идентификатор : 3
Формат : AC-3
Формат/Информация : Audio Coding 3
Расширение режима : CM (complete main)
Параметр Endianness формата : Big
Идентификатор кодека : A_AC3
Продолжительность : 1 ч. 29 м.
Вид битрейта : Постоянный
Битрейт : 192 Кбит/сек
Каналы : 2 канала
Расположение каналов : Front: L R
Частота : 48,0 КГц
Частота кадров : 31,250 кадров/сек (1536 spf)
Битовая глубина : 16 бит
Метод сжатия : С потерями
Размер потока : 123 Мбайт (6%)
Заголовок : MVO [HDRezka Studio]
Язык : Russian
Default : Нет
Forced : Нет

Аудио #3
Идентификатор : 4
Формат : AC-3
Формат/Информация : Audio Coding 3
Расширение режима : CM (complete main)
Параметр Endianness формата : Big
Идентификатор кодека : A_AC3
Продолжительность : 1 ч. 29 м.
Вид битрейта : Постоянный
Битрейт : 448 Кбит/сек
Каналы : 6 каналов
Расположение каналов : Front: L C R, Side: L R, LFE
Частота : 48,0 КГц
Частота кадров : 31,250 кадров/сек (1536 spf)
Битовая глубина : 16 бит
Метод сжатия : С потерями
Размер потока : 286 Мбайт (14%)
Заголовок : [Original]
Язык : English
Default : Нет
Forced : Нет

Текст
Идентификатор : 5
Формат : UTF-8
Идентификатор кодека : S_TEXT/UTF8
Идентификатор кодека/Информация : UTF-8 Plain Text
Продолжительность : 1 ч. 22 м.
Битрейт : 42 бит/сек
Count of elements : 881
Размер потока : 25,4 Кбайт (0%)
Заголовок : Full
Язык : English
Default : Нет
Forced : Нет

Меню
00:00:00.000 : en:Chapter 01
00:06:06.532 : en:Chapter 02
00:10:32.757 : en:Chapter 03
00:18:10.506 : en:Chapter 04
00:21:27.995 : en:Chapter 05
00:29:09.539 : en:Chapter 06
00:33:12.448 : en:Chapter 07
00:38:08.202 : en:Chapter 08
00:44:59.321 : en:Chapter 09
00:49:25.379 : en:Chapter 10
00:55:43.381 : en:Chapter 11
01:00:34.255 : en:Chapter 12
01:04:15.184 : en:Chapter 13
01:11:16.522 : en:Chapter 14
01:17:45.035 : en:Chapter 15
01:22:09.132 : en:Chapter 16

pb.wtf



Скачать Домино через торрент https://i89.fastpic.ru/big/2019/0723/08/c5064a44afae16387333327652cec608.jpg Скачать фильм Домино через торрент бесплантно в хорошем качестве Описание: Офицер полиции Копенгагена жаждет отомстить за смерть напарника от руки некоего Имрана. Охоту на убийцу он ведёт в компании с ... 10 10 7
Торрент: Зарегистрирован [2019-07-30 20:34] · скачан: 53 раз
Статус: √ проверено
Размер: 2.03 GB
Как cкачать? Как скачать Домино через торрент | qTorrent

% Раздел Тема Автор DL S | L
Фильмы 2019 [DVDrip, WEB-DLRip, HDrip] (DUB, MVO) [ 1.42 GB ] Домино / Domino [2019 BDRip] - Twi7ter Скачать
13 | 0
Фильмы 2019 [DVDrip, WEB-DLRip, HDrip] (DUB, MVO) [ 703 MB ] Домино / Domino [2019 HDRip ""] coc900 Скачать
3 | 0
Фильмы 2019 [DVDrip, WEB-DLRip, HDrip] (DUB, MVO) [ 1.46 GB ] Домино / Domino [2019 BDRip] bober100 Скачать
1 | 0
Фильмы [HD 720p, 1080p] (Хороший звук DUB, MVO) [ 4.34 GB ] Домино / Domino [2019 BDRip 720p] +MVO [HDRezka Studio] bober100 Скачать
1 | 0
Фильмы [HD 720p, 1080p] (Хороший звук DUB, MVO) [ 7.34 GB ] Домино / Domino [2019 BDRip 1080p] +MVO [HDRezka Studio] bober100 Скачать
1 | 0
Порно фильмы без сюжета [ 1.47 GB ] Странные секреты Домины / Domina's Kinky Secrets [2018 Rough Sex BDSM Anal WEB-DL] Скорпион1976 Скачать
1 | 0
Фильмы [HD 720p, 1080p] (Хороший звук DUB, MVO) [ 3.85 GB ] Принцип домино / The Domino Principle [1977 BDRip 720p by msltel] DUB MVO DVO AVO msltel Скачать
1 | 0

28-11-2019 20:33  

Отключить всю рекламу на сайте

    Дорогой пользователь! Огромная просьба, поблагодарите релизера, оцените раздачу и оставьте свои комментарий, если Вы скачали Домино через торрент бесплатно! Внесите свою лепту в развитие PiratBit!
    Комментировать посты могут только пользователи прошедшие не сложную регистрацию
    Показать сообщения:    

    Домино через торрент
    Скачать бесплатно Домино
    Домино скачать торрент
    Домино смотреть онлайн
    Cкачать фильм Домино бесплатно
    Домино скачать торрент в хорошем качестве
    Домино смотреть онлайн бесплатно в хорошем качестве


    Вы не можете начинать темы
    Вы не можете отвечать на сообщения
    Вы не можете редактировать свои сообщения
    Вы не можете удалять свои сообщения
    Вы не можете голосовать в опросах
    Вы не можете прикреплять файлы к сообщениям
    Вы можете скачивать файлы