Ссылка на приватное зеркало нашего сайта всего за 1$. Внимание количество ограничено!!!

2 сезон

iTunes

1 сезон

1

2 сезон

2 сезон

iTunes

1 сезон

RePack

30

Новинка

ВАЖНО

ИГРА 18+

pack

RePack

MK11
pack

Забери бонус

RePack

jed

!!Акция!!

Alien_Rage

RePack

fifa19

RePack

Assassins Creed: Odyssey

RePack

NEED FOR SPEED™ PAYBACK

4 сезон

9 сезон

Бесстыжие 9 сезон

Все сериалы

все сериалы на PB.wtf

RePack

FAR CRY 5
  

Лондон убивает / London Kills / Сезон: 1 / Серии: 1-5 из 5 (Крэйг Пиклз, Фиона Уолтон, Шон Глинн) [2019, криминал, WEB-DL 1080p] MVO [HDRezka Studio] pb.wtf

Лондон убивает через торрент pb.wtf

Размер: 15.55 GB | Добавлен: 1 год 4 мес. назад | Торрент скачан:14 раз
Скачать  

23-07-2019 03:49 Лондон убивает Скачать торрент  

Лондон убивает / London Kills Год выпуска: 2019
Страна: Великобритания
Жанр: криминал
Продолжительность: ~00:45:00 серия
Перевод: Профессиональный (многоголосый закадровый) | HDRezka Studio
Субтитры: английские

Режиссёр: Крэйг Пиклз, Фиона Уолтон, Шон Глинн

В ролях: Хьюго Спир, Шэрон Смолл, Бэйли Патрик, Дженни Жак, Ли Байфорд, Рут Хоррокс, Мэйми МакКой, Адрианна Бертола, Стив Броад

Описание: В центре сюжета сериала находится элитный отряд детективов из Лондона, специализирующийся на расследовании убийств. Инспектор Дэвид Брэдфорд возвращается на службу после трехмесячного перерыва, связанного с пропажей жены, которая так и не нашлась. Среди его подчиненных сержант Вивьен Коул — специалист по психологическим портретам, Роб Брэйди — суровый детектив с большим опытом, и стажер Билли Фицджеральд — добродушная девушка, чья неопытность может подставить всю команду. В каждом эпизоде детективы расследуют новое убийство, а Брэдфорд не оставляет попыток разыскать свою супругу...

rating

Качество: WEB-DL 1080p
Формат: MKV

Видео: MPEG4 AVC Video, H264, 16:9, 1920x1080, 25 fps, ~9000 kbps
Аудио: Russian (AC3, 2 ch, 192 kbps, 16 bits, 48.0 KHz) - HDRezka Studio
Аудио 2: English (E-AC3, 2 ch, 224 kbps, 16 bits, 48.0 KHz) - оригинал


Реклама: отсутствует
General
Unique ID : 194218748195584300966880795641287219167 (0x921D2B983309A916AFB4AA559D7B17DF)
Complete name : J:\London.Kills.S01.1080p.WEB-DL.HDRezka\London.Kills.S01E01.1080p.AMZN.WEB-DL.HDRezka.mkv
Format : Matroska
Format version : Version 4 / Version 2
File size : 3.03 GiB
Duration : 45 min 52 s
Overall bit rate : 9 456 kb/s
Encoded date : UTC 2019-07-23 02:01:28
Writing application : mkvmerge v6.1.0 ('Old Devil') built on Mar 2 2013 14:32:37
Writing library : libebml v1.3.0 + libmatroska v1.4.0

Video
ID : 1
Format : AVC
Format/Info : Advanced Video Codec
Format profile : High@L4
Format settings : CABAC / 4 Ref Frames
Format settings, CABAC : Yes
Format settings, ReFrames : 4 frames
Codec ID : V_MPEG4/ISO/AVC
Duration : 45 min 53 s
Bit rate mode : Constant
Bit rate : 8 851 kb/s
Nominal bit rate : 10 000 kb/s
Width : 1 920 pixels
Height : 1 080 pixels
Display aspect ratio : 16:9
Frame rate mode : Constant
Frame rate : 25.000 FPS
Color space : YUV
Chroma subsampling : 4:2:0
Bit depth : 8 bits
Scan type : Progressive
Bits/(Pixel*Frame) : 0.171
Stream size : 2.84 GiB (94%)
Language : English
Default : Yes
Forced : No
Color range : Limited
Color primaries : BT.709
Transfer characteristics : BT.709
Matrix coefficients : BT.709

Audio #1
ID : 2
Format : AC-3
Format/Info : Audio Coding 3
Codec ID : A_AC3
Duration : 45 min 52 s
Bit rate mode : Constant
Bit rate : 192 kb/s
Channel(s) : 2 channels
Channel positions : Front: L R
Sampling rate : 48.0 kHz
Frame rate : 31.250 FPS (1536 SPF)
Bit depth : 16 bits
Compression mode : Lossy
Stream size : 63.0 MiB (2%)
Language : Russian
Service kind : Complete Main
Default : Yes
Forced : No

Audio #2
ID : 3
Format : E-AC-3
Format/Info : Enhanced Audio Coding 3
Codec ID : A_EAC3
Duration : 45 min 52 s
Bit rate mode : Constant
Bit rate : 224 kb/s
Channel(s) : 2 channels
Channel positions : Front: L R
Sampling rate : 48.0 kHz
Frame rate : 187.500 FPS (256 SPF)
Compression mode : Lossy
Stream size : 73.5 MiB (2%)
Language : English
Service kind : Complete Main
Default : No
Forced : No

Text
ID : 4
Format : UTF-8
Codec ID : S_TEXT/UTF8
Codec ID/Info : UTF-8 Plain Text
Title : English [SDH]
Language : English
Default : No
Forced : No
pb.wtf



Скачать Лондон убивает через торрент https://i89.fastpic.ru/big/2019/0722/6c/8562e8eb9823b3244b6b4aa788d3f46c.jpg Скачать фильм Лондон убивает через торрент бесплантно в хорошем качестве Описание: В центре сюжета сериала находится элитный отряд детективов из Лондона, специализирующийся на расследовании убийств. Инспектор ... 7 10 3
Торрент: Зарегистрирован [2019-07-23 03:49] · скачан: 14 раз
Статус: √ проверено
Размер: 15.55 GB
Как cкачать? Как скачать Лондон убивает через торрент | qTorrent

% Раздел Тема Автор DL S | L
Зарубежные сериалы [ 2.45 GB ] Лондон убивает / London Kills / Сезон: 2 / Серии: 1-5 из 5 [2019 WEBRip-AVC] [MVO] killermax2013 Скачать
1 | 0
Зарубежные сериалы [ 7.42 GB ] Лондон убивает / London Kills / Сезон: 1 / Серии: 1-5 из 5 [2019 WEB-DL 720p] [MVO] killermax2013 Скачать
1 | 0
Зарубежные сериалы [ 3.32 GB ] Лондон убивает / London Kills / Сезон: 1 / Серии: 1-5 из 5 [2019 WEB-DLRip] MVO [HDRezka Studio] bober100 Скачать
1 | 0

28-11-2019 20:33  

Отключить всю рекламу на сайте

    Дорогой пользователь! Огромная просьба, поблагодарите релизера, оцените раздачу и оставьте свои комментарий, если Вы скачали Лондон убивает через торрент бесплатно! Внесите свою лепту в развитие PiratBit!
    Комментировать посты могут только пользователи прошедшие не сложную регистрацию
    Показать сообщения:    

    Лондон убивает через торрент
    Скачать бесплатно Лондон убивает
    Лондон убивает скачать торрент
    Лондон убивает смотреть онлайн
    Cкачать фильм Лондон убивает бесплатно
    Лондон убивает скачать торрент в хорошем качестве
    Лондон убивает смотреть онлайн бесплатно в хорошем качестве


    Вы не можете начинать темы
    Вы не можете отвечать на сообщения
    Вы не можете редактировать свои сообщения
    Вы не можете удалять свои сообщения
    Вы не можете голосовать в опросах
    Вы не можете прикреплять файлы к сообщениям
    Вы можете скачивать файлы