Ссылка на приватное зеркало нашего сайта всего за 1$. Внимание количество ограничено!!!

2 сезон

iTunes

1 сезон

1

2 сезон

2 сезон

iTunes

1 сезон

RePack

30

Ultimate

ВАЖНО

ИГРА 18+

pack

RePack

MK11
pack

Забери бонус

RePack

jed

!!Акция!!

Alien_Rage

RePack

fifa19

RePack

Assassins Creed: Odyssey

RePack

NEED FOR SPEED™ PAYBACK

4 сезон

9 сезон

Бесстыжие 9 сезон

Все сериалы

все сериалы на PB.wtf

RePack

FAR CRY 5
  

Боль и слава / Dolor y gloria / Pain and Glory (Педро Альмодовар) [2019, драма, BD Remux 1080p] DUB [iTunes] pb.wtf

Боль и слава через торрент pb.wtf

Размер: 25.18 GB | Добавлен: 1 год 1 мес. назад | Торрент скачан:29 раз
Скачать  

23-07-2019 05:08 Боль и слава Скачать торрент  

Боль и слава / Dolor y gloria / Pain and Glory
Год выпуска: 2019
Страна: Испания
Жанр: драма
Продолжительность: 01:53:40
Перевод: Дублированный | iTunes
Субтитры: Русские (Full), английские

Режиссер: Педро Альмодовар

rating

В ролях: Антонио Бандерас, Пенелопа Крус, Асьер Эчеандиа, Леонардо Сбаралья, Нора Навас, Хульета Серрано, Сесар Висенте, Асьер Флорес, Сесилия Рот, Суси Санчес

Описание: Талантливый кинорежиссер на закате своего творческого пути оглядывается в прошлое, и на него обрушивается поток ярких воспоминаний. Нежные чувства к матери, любовь и расставание, поиски счастья и успеха. Всё это приводит творца к важным размышлениям о жизни и искусстве - боли и славе.

Качество: BD Remux 1080p
Формат: MKV

Видео: MPEG-4 AVC, 1920x1080, 28.0 Mbit/s, 23.976 fps
Аудио#1: 48 kHz, AC3, 5.1, 384 Kbps | iTunes | RUS |
Аудио#2: 48 kHz, DTS-HD MA, 5.1, 3359 Kbps | Оригинал | SPA |
скриншот  скриншот  скриншот  [th]скриншот  скриншот  

General
Unique ID : 189919477560645189875889936996834840994 (0x8EE1292FCD2D7B7C3E43D93FACBD91A2)
Complete name : D:Video111Dolor.y.Gloria.2019.BDREMUX.1080p.seleZen.mkv
Format : Matroska
Format version : Version 4
File size : 25.2 GiB
Duration : 1 h 53 min
Overall bit rate mode : Variable
Overall bit rate : 31.7 Mb/s
Movie name : Pedro Almodóvar - Dolor y gloria ('Pain and Glory') (2019) from селезень
Encoded date : UTC 2019-09-27 22:32:50
Writing application : mkvmerge v22.0.0 ('At The End Of The World') 64-bit
Writing library : libebml v1.3.5 + libmatroska v1.4.8

Video
ID : 1
Format : AVC
Format/Info : Advanced Video Codec
Format profile : High@L4.1
Format settings : CABAC / 4 Ref Frames
Format settings, CABAC : Yes
Format settings, Reference : 4 frames
Codec ID : V_MPEG4/ISO/AVC
Duration : 1 h 53 min
Bit rate mode : Variable
Bit rate : 28.0 Mb/s
Maximum bit rate : 36.0 Mb/s
Width : 1 920 pixels
Height : 1 080 pixels
Display aspect ratio : 16:9
Frame rate mode : Constant
Frame rate : 24.000 FPS
Standard : NTSC
Color space : YUV
Chroma subsampling : 4:2:0
Bit depth : 8 bits
Scan type : Progressive
Bits/(Pixel*Frame) : 0.562
Stream size : 22.2 GiB (88%)
Language : English
Default : Yes
Forced : No
Color range : Limited
Color primaries : BT.709
Transfer characteristics : BT.709
Matrix coefficients : BT.709

Audio #1
ID : 2
Format : AC-3
Format/Info : Audio Coding 3
Commercial name : Dolby Digital
Codec ID : A_AC3
Duration : 1 h 53 min
Bit rate mode : Constant
Bit rate : 384 kb/s
Channel(s) : 6 channels
Channel layout : L R C LFE Ls Rs
Sampling rate : 48.0 kHz
Frame rate : 31.250 FPS (1536 SPF)
Bit depth : 16 bits
Compression mode : Lossy
Stream size : 311 MiB (1%)
Title : iTunes
Language : Russian
Service kind : Complete Main
Default : Yes
Forced : Yes

Audio #2
ID : 3
Format : DTS XLL
Format/Info : Digital Theater Systems
Commercial name : DTS-HD Master Audio
Codec ID : A_DTS
Duration : 1 h 53 min
Bit rate mode : Variable
Bit rate : 3 359 kb/s
Channel(s) : 6 channels
Channel layout : C L R Ls Rs LFE
Sampling rate : 48.0 kHz
Frame rate : 93.750 FPS (512 SPF)
Bit depth : 24 bits
Compression mode : Lossless
Stream size : 2.66 GiB (11%)
Title : Original
Language : Spanish
Default : No
Forced : No

Text #1
ID : 4
Format : UTF-8
Codec ID : S_TEXT/UTF8
Codec ID/Info : UTF-8 Plain Text
Duration : 1 h 48 min
Bit rate : 95 b/s
Count of elements : 1426
Stream size : 76.1 KiB (0%)
Title : Full
Language : Russian
Default : No
Forced : No

Text #2
ID : 5
Format : UTF-8
Codec ID : S_TEXT/UTF8
Codec ID/Info : UTF-8 Plain Text
Duration : 1 h 46 min
Bit rate : 66 b/s
Count of elements : 1440
Stream size : 52.0 KiB (0%)
Title : Full
Language : English
Default : No
Forced : No

Menu
00:00:00.000 : :Chapter 01
00:10:09.500 : :Chapter 02
00:17:24.458 : :Chapter 03
00:28:05.500 : :Chapter 04
00:37:58.042 : :Chapter 05
00:46:09.333 : :Chapter 06
00:56:25.208 : :Chapter 07
01:05:11.750 : :Chapter 08
01:18:02.375 : :Chapter 09
01:24:25.000 : :Chapter 10
01:34:34.500 : :Chapter 11
01:43:51.375 : :Chapter 12

pb.wtf



Скачать Боль и слава через торрент https://i86.fastpic.ru/big/2019/0927/2c/3362afaa17bcae8e9747eb2e277d422c.jpg Скачать фильм Боль и слава через торрент бесплантно в хорошем качестве Описание: Талантливый кинорежиссер на закате своего творческого пути оглядывается в прошлое, и на него обрушивается поток ярких ... 9.3 10 8
Info! Золотая раздача, скачанное не засчитывается.
Торрент: Зарегистрирован [2019-09-28 02:12] · скачан: 29 раз
Статус: √ проверено
Размер: 25.18 GB
Как cкачать? Как скачать Боль и слава через торрент | qTorrent

% Раздел Тема Автор DL S | L
Фильмы 2019-2020 [DVDrip, WEB-DLRip, HDrip] (DUB, MVO) [ 2.13 GB ] Боль и слава / Dolor y gloria / Pain and Glory [2019 BDRip] bober100 Скачать
3 | 0
Фильмы [HD 720p, 1080p] (Хороший звук DUB, MVO) [ 13.81 GB ] Боль и слава / Dolor y gloria / Pain and Glory [2019 BDRip 1080p] bober100 Скачать
2 | 0
Фильмы 2019-2020 [DVDrip, WEB-DLRip, HDrip] (DUB, MVO) [ 1.46 GB ] Боль и слава / Dolor y gloria / Pain and Glory [2019 BDRip] bober100 Скачать
1 | 0

28-11-2019 20:33  

Отключить всю рекламу на сайте

    Дорогой пользователь! Огромная просьба, поблагодарите релизера, оцените раздачу и оставьте свои комментарий, если Вы скачали Боль и слава через торрент бесплатно! Внесите свою лепту в развитие PiratBit!
    Комментировать посты могут только пользователи прошедшие не сложную регистрацию
    Показать сообщения:    

    Боль и слава через торрент
    Скачать бесплатно Боль и слава
    Боль и слава скачать торрент
    Боль и слава смотреть онлайн
    Cкачать фильм Боль и слава бесплатно
    Боль и слава скачать торрент в хорошем качестве
    Боль и слава смотреть онлайн бесплатно в хорошем качестве


    Вы не можете начинать темы
    Вы не можете отвечать на сообщения
    Вы не можете редактировать свои сообщения
    Вы не можете удалять свои сообщения
    Вы не можете голосовать в опросах
    Вы не можете прикреплять файлы к сообщениям
    Вы можете скачивать файлы