Ссылка на приватное зеркало всего за 1$. Внимание количество ограничено!!!

OK

1+1

iTunes

мы

OK

1

WEB-DLRip

Джокер

Пифагор

Ведьмак / The Witcher сериал

iTunes

ПШазам

ОК

Оно 2

iTunes

30
pack

Вам бонус

ВАЖНО

!!Акция!!

Alien_RageХит недели

RePack

Resident Evil 21

ИГРА 18+

pack

RePack

jed

RePack

fifa19

RePack

Assassins Creed: Odyssey

RePack

NEED FOR SPEED™ PAYBACK

4 сезон

9 сезон

Бесстыжие 9 сезон

Все сериалы

все сериалы на PB.wtf

RePack

FAR CRY 5
  

Зов волка / Le chant du loup (Абель Ланзак) [2019, боевик, драма, военный, UHD BDRip 2160p] MVO [СВ Студия] pb.wtf

Зов волка через торрент pb.wtf

Размер: 13.53 GB | Добавлен: 6 мес. назад | Торрент скачан:40 раз
Скачать  

23-07-2019 08:33 Зов волка Скачать торрент  

Зов волка / Le chant du loup««Когда нет места страху, нет права на ошибку и нет времени на раздумья...»»

Год выпуска: 2019
Страна: Франция
Жанр: боевик, драма, военный
Продолжительность: 01:55:55
Перевод: Профессиональный многоголосый | СВ Студия
Субтитры: английские (full), французские (full)
Режиссер: Абель Ланзак
В ролях:

Франсуа Сивиль (Chanteraide), Омар Си (D'Orsi), Матьё Кассовиц (Alfost), Реда Катеб (Grandchamp), Паула Бир (Diane), Алексис Михалик (Second SNLE-B2R), Жан-Ив Бертело (Commandant CIRA), Дамиен Боннар (Officier navigation SNLE), Pierre Cevaer (Veilleur sonar SNA), Себастьен Либессар (Cadet SNA), Paul Granier (Opérateur table SNA), Etienne Guillou-Kervern (Maître de centrale)
Описание:
Молодой подводник обладает редким даром распознавать каждый звук, который он слышит. От его «Золотого уха» зависят судьбы людей, а ошибка ставит под угрозу жизнь всего экипажа подводной лодки. Желая вернуть доверие своих товарищей, он проводит собственное расследование военной провокации, в результате которой весь мир оказывается в шаге от ядерного апокалипсиса. Чтобы предотвратить мировую войну, элитной боевой команде подлодки необходимо совершить невозможное, ведь главный приказ отмене не подлежит.
Рейтинг:

Качество: UHD BDRip 2160p
Формат: MKV
Видео: HEVC HDR, 15.5 Mбит/с, 3840x1608, 23.976 Кадр/с, 10 Бит
Аудио: AC3, 6 ch, 640 Kbps - Русский_ многоголосый профессиональный (СВ Студия)
Аудио: AC3, 6 ch, 640 kbps - Французкий
Навигация по главам: есть

General
Unique ID : 202273952431198831745342600973199338443 (0x982C8BD37AE907F8960CADA204A3EBCB)
Complete name : H:\Le.Chant.Du.Loup.2019.BDRip.UHD.2160p.HEVC.HDR.Master5.mkv
Format : Matroska
Format version : Version 4
File size : 13.5 GiB
Duration : 1 h 55 min
Overall bit rate : 16.7 Mb/s
Movie name : Le.Chant.Du.Loup.2019.BDRip.UHD.2160p.HEVC.HDR.Master5
Encoded date : UTC 2019-07-23 04:38:46
Writing application : mkvmerge v7.9.0 ('Birds') 64bit
Writing library : libebml v1.3.1 + libmatroska v1.4.2
Cover : Yes
Attachments : cover.jpg

Video
ID : 1
Format : HEVC
Format/Info : High Efficiency Video Coding
Format profile : Main 10@L5.1@High
HDR format : SMPTE ST 2086, HDR10 compatible
Codec ID : V_MPEGH/ISO/HEVC
Duration : 1 h 55 min
Bit rate : 15.5 Mb/s
Width : 3 840 pixels
Height : 1 608 pixels
Display aspect ratio : 2.40:1
Frame rate mode : Constant
Frame rate : 23.976 (24000/1001) FPS
Color space : YUV
Chroma subsampling : 4:2:0
Bit depth : 10 bits
Bits/(Pixel*Frame) : 0.104
Stream size : 12.5 GiB (92%)
Title : Le.Chant.Du.Loup.2019.BDRip.UHD.2160p.HEVC.HDR.Master5
Language : English
Default : Yes
Forced : No
Color range : Limited
Color primaries : BT.2020
Transfer characteristics : PQ
Matrix coefficients : BT.2020 non-constant
Mastering display color primar : BT.2020
Mastering display luminance : min: 0.0001 cd/m2, max: 1000 cd/m2
Maximum Content Light Level : 1000 cd/m2
Maximum Frame-Average Light Le : 300 cd/m2

Audio #1
ID : 2
Format : AC-3
Format/Info : Audio Coding 3
Commercial name : Dolby Digital
Codec ID : A_AC3
Duration : 1 h 55 min
Bit rate mode : Constant
Bit rate : 640 kb/s
Channel(s) : 6 channels
Channel layout : L R C LFE Ls Rs
Sampling rate : 48.0 kHz
Frame rate : 31.250 FPS (1536 SPF)
Bit depth : 16 bits
Compression mode : Lossy
Stream size : 530 MiB (4%)
Title : СВ Студия
Language : Russian
Service kind : Complete Main
Default : Yes
Forced : No

Audio #2
ID : 3
Format : AC-3
Format/Info : Audio Coding 3
Commercial name : Dolby Digital
Codec ID : A_AC3
Duration : 1 h 55 min
Bit rate mode : Constant
Bit rate : 640 kb/s
Channel(s) : 6 channels
Channel layout : L R C LFE Ls Rs
Sampling rate : 48.0 kHz
Frame rate : 31.250 FPS (1536 SPF)
Bit depth : 16 bits
Compression mode : Lossy
Stream size : 531 MiB (4%)
Language : French
Service kind : Complete Main
Default : No
Forced : No

Text #1
ID : 4
Format : UTF-8
Codec ID : S_TEXT/UTF8
Codec ID/Info : UTF-8 Plain Text
Duration : 1 h 54 min
Bit rate : 37 b/s
Count of elements : 1167
Stream size : 31.5 KiB (0%)
Title : Full
Language : English
Default : No
Forced : No

Text #2
ID : 5
Format : UTF-8
Codec ID : S_TEXT/UTF8
Codec ID/Info : UTF-8 Plain Text
Duration : 1 h 54 min
Bit rate : 54 b/s
Count of elements : 1627
Stream size : 45.6 KiB (0%)
Title : Full
Language : French
Default : No
Forced : No

Menu
00:00:00.000 : en:Chapter 01
00:12:02.138 : en:Chapter 02
00:22:56.792 : en:Chapter 03
00:32:05.090 : en:Chapter 04
00:40:23.880 : en:Chapter 05
00:51:37.594 : en:Chapter 06
01:01:48.997 : en:Chapter 07
01:12:54.662 : en:Chapter 08
01:19:21.131 : en:Chapter 09
01:28:48.949 : en:Chapter 10
01:39:49.567 : en:Chapter 11
01:49:54.421 : en:Chapter 12
01:55:44.938 : en:Chapter 13
pb.wtf



Скачать Зов волка через торрент https://c.radikal.ru/c20/1907/f2/d4aaf12d0d6e.png Скачать фильм Зов волка через торрент бесплантно в хорошем качестве Описание: Молодой подводник обладает редким даром распознавать каждый звук, который он слышит. От его «Золотого уха» зависят судьбы людей, ... 6.5 10 4
Торрент: Зарегистрирован [2019-07-23 08:33] · скачан: 40 раз
Статус: √ проверено
Размер: 13.53 GB
Как cкачать? Как скачать Зов волка через торрент | qTorrent

% Раздел Тема Автор DL S | L
Фильмы 2019-2020 [DVDrip, WEB-DLRip, HDrip] (DUB, MVO) [ 1.91 GB ] Зов волка / Le chant du loup [2019 BDRip-AVC] Dub - ExKinoRay Enigma2010 Скачать
173 | 6
Фильмы 2019-2020 [DVDrip, WEB-DLRip, HDrip] (DUB, MVO) [ 1.45 GB ] Зов волка / Le chant du loup [2019 BDRip] bober100 Скачать
6 | 0
Фильмы [HD 720p, 1080p] (Хороший звук DUB, MVO) [ 5.7 GB ] Зов волка / Le chant du loup [2019 BDRip 720p] +MVO [CВ Студия] bober100 Скачать
2 | 0
Фильмы 2019-2020 [DVDrip, WEB-DLRip, HDrip] (DUB, MVO) [ 2.13 GB ] Зов волка / Le chant du loup [2019 BDRip] bober100 Скачать
4 | 0
Фильмы [HD 720p, 1080p] (Хороший звук DUB, MVO) [ 10.62 GB ] Зов волка / Le chant du loup [2019 BDRip 1080p] +MVO [CВ Студия] bober100 Скачать
3 | 0
Фильмы 2019-2020 [DVDrip, WEB-DLRip, HDrip] (DUB, MVO) [ 1.46 GB ] Зов волка / Le chant du loup [2019 BDRip-AVC] MVO [СВ Студия] sokol_ok Скачать
22 | 3
Фильмы 2019-2020 [DVDrip, WEB-DLRip, HDrip] (DUB, MVO) [ 2.95 GB ] Зов волка / Le chant du loup [2019 BDRip-AVC] MVO [СВ Студия] sokol_ok Скачать
23 | 3

28-11-2019 20:33  

Отключить всю рекламу на сайте

    Дорогой пользователь! Огромная просьба, поблагодарите релизера, оцените раздачу и оставьте свои комментарий, если Вы скачали Зов волка через торрент бесплатно! Внесите свою лепту в развитие PiratBit!
    Комментировать посты могут только пользователи прошедшие не сложную регистрацию
    Показать сообщения:    

    Зов волка через торрент
    Скачать бесплатно Зов волка
    Зов волка скачать торрент
    Зов волка смотреть онлайн
    Cкачать фильм Зов волка бесплатно
    Зов волка скачать торрент в хорошем качестве
    Зов волка смотреть онлайн бесплатно в хорошем качестве


    Вы не можете начинать темы
    Вы не можете отвечать на сообщения
    Вы не можете редактировать свои сообщения
    Вы не можете удалять свои сообщения
    Вы не можете голосовать в опросах
    Вы не можете прикреплять файлы к сообщениям
    Вы можете скачивать файлы