Ссылка на приватное зеркало нашего сайта всего за 1$. Внимание количество ограничено!!!

2 сезон

iTunes

1 сезон

1

iTunes

iTunes

iTunes

1 сезон

RePack

30

ИГРА 18+

pack

ВАЖНО

!!Акция!!

Alien_RageХит недели

RePack

MK11
pack

Забери бонус

RePack

jed

!!Акция!!

Alien_Rage

RePack

fifa19

RePack

Assassins Creed: Odyssey

RePack

NEED FOR SPEED™ PAYBACK

4 сезон

9 сезон

Бесстыжие 9 сезон

Все сериалы

все сериалы на PB.wtf

RePack

FAR CRY 5
  

Наживка для ангела / Не плачь, я ухожу / Сезон: 1 / Серии: 1-16 из 16 (Валерий Девятилов) [2017, Мелодрама, HDTV 1080i] pb.wtf

Наживка для ангела через торрент pb.wtf

Размер: 44.21 GB | Добавлен: 1 год 3 мес. назад | Торрент скачан:13 раз
Скачать  

23-07-2019 11:37 Наживка для ангела Скачать торрент  

Наживка для ангела / Не плачь, я ухожу Год выпуска: 2017
Страна: Россия
Жанр: Мелодрама
Продолжительность: ~ 00:50:00 серия
Субтитры: отсутствуют

Режиссер: Валерий Девятилов



В ролях: Татьяна Арнтгольц, Любовь Константинова, Марк Богатырёв, Владимир Жеребцов, Алексей Бардуков, Татьяна Лютаева, Борис Щербаков, Екатерина Молоховская, Екатерина Семёнова

Описание: Даша Пантелеева - известная телеведущая. На первый взгляд, у неё всё прекрасно: отец - владелец крупной строительной корпорации, мать – знаменитый скульптор, жених - успешный бизнесмен... Но в жизни Даши не всё так гладко. Она живёт с постоянным чувством вины. Дело в том, что шестнадцать лет назад она на вокзале в толпе потеряла 3-летнюю сестру Иду. Девочку так и не нашли и уже много лет считают погибшей. Мать до сих пор не может пережить это горе, обвиняет во всём Дашу, устраивает истерики и всё сильнее злоупотребляет алкоголем. Ситуация усугубляется тем, что Даша - не родная дочь Пантелеевых. Они удочерили её, когда ей было пять лет...

Качество: HDTV 1080i
Формат: TS

Видео: MPEG4 AVC Video, H264, 16:9, 1920x1080, 25 fps, ~7100 kbps
Аудио: MP2, 2 ch, 192 kbps, 16 bits, 48.0 KHz
скриншот  скриншот  скриншот  скриншот  скриншот  

скриншот  скриншот  скриншот  скриншот  скриншот  

General
ID : 1 (0x1)
Complete name : D:\Nazhivka.dlya.angela.2017.HDTV.1080i\Nazhivka.dlya.angela.01.2017.HDTV.1080i.ts
Format : MPEG-TS
File size : 2.64 GiB
Duration : 49mn 27s
Overall bit rate mode : Variable
Overall bit rate : 7 656 Kbps

Video
ID : 2911 (0xB5F)
Menu ID : 1192 (0x4A8)
Format : AVC
Format/Info : Advanced Video Codec
Format profile : High@L4.0
Format settings, CABAC : Yes
Format settings, ReFrames : 4 frames
Codec ID : 27
Duration : 49mn 29s
Bit rate : 7 084 Kbps
Width : 1 920 pixels
Height : 1 080 pixels
Display aspect ratio : 16:9
Frame rate : 25.000 fps
Color space : YUV
Chroma subsampling : 4:2:0
Bit depth : 8 bits
Scan type : MBAFF
Bits/(Pixel*Frame) : 0.137
Stream size : 2.45 GiB (93%)

Audio
ID : 2912 (0xB60)
Menu ID : 1192 (0x4A8)
Format : MPEG Audio
Format version : Version 1
Format profile : Layer 2
Codec ID : 3
Duration : 49mn 29s
Bit rate mode : Constant
Bit rate : 192 Kbps
Channel count : 2 channels
Sampling rate : 48.0 KHz
Compression mode : Lossy
Stream size : 68.0 MiB (3%)
Language : Russian

pb.wtf



Скачать Наживка для ангела через торрент http://img12.lostpic.net/2017/10/03/6e967f387d3adba7414e35eb0e4c39be.jpg Скачать фильм Наживка для ангела через торрент бесплантно в хорошем качестве Описание: Даша Пантелеева - известная телеведущая. На первый взгляд, у неё всё прекрасно: отец - владелец крупной строительной корпорации, ... 10 10 2
Info! Серебряная раздача, засчитывается только 50% скачанного.
Торрент: Зарегистрирован [2019-07-23 11:37] · скачан: 13 раз
Статус: √ проверено
Размер: 44.21 GB
Как cкачать? Как скачать Наживка для ангела через торрент | qTorrent

28-11-2019 20:33  

Отключить всю рекламу на сайте

    Дорогой пользователь! Огромная просьба, поблагодарите релизера, оцените раздачу и оставьте свои комментарий, если Вы скачали Наживка для ангела через торрент бесплатно! Внесите свою лепту в развитие PiratBit!
    Комментировать посты могут только пользователи прошедшие не сложную регистрацию
    Показать сообщения:    

    Наживка для ангела через торрент
    Скачать бесплатно Наживка для ангела
    Наживка для ангела скачать торрент
    Наживка для ангела смотреть онлайн
    Cкачать фильм Наживка для ангела бесплатно
    Наживка для ангела скачать торрент в хорошем качестве
    Наживка для ангела смотреть онлайн бесплатно в хорошем качестве


    Вы не можете начинать темы
    Вы не можете отвечать на сообщения
    Вы не можете редактировать свои сообщения
    Вы не можете удалять свои сообщения
    Вы не можете голосовать в опросах
    Вы не можете прикреплять файлы к сообщениям
    Вы можете скачивать файлы