Ссылка на приватное зеркало нашего сайта всего за 1$. Внимание количество ограничено!!!

2 сезон

iTunes

1 сезон

1

2 сезон

2 сезон

iTunes

1 сезон

RePack

30

Новинка

ВАЖНО

ИГРА 18+

pack

RePack

MK11
pack

Забери бонус

RePack

jed

!!Акция!!

Alien_Rage

RePack

fifa19

RePack

Assassins Creed: Odyssey

RePack

NEED FOR SPEED™ PAYBACK

4 сезон

9 сезон

Бесстыжие 9 сезон

Все сериалы

все сериалы на PB.wtf

RePack

FAR CRY 5
  

Пенниуорт / Pennyworth / Сезон: 1 / Серии: 1-10 из 10 (Роб Бэйли, Билл Иглз, Дэнни Кэннон) [2019, Боевик, драма, криминал, WEBRip] [MVO] (Jaskier) pb.wtf

Пенниуорт через торрент pb.wtf

Размер: 6.49 GB | Добавлен: 1 год 1 мес. назад | Торрент скачан:13 раз
Скачать  

23-07-2019 12:51 Пенниуорт Скачать торрент  

Пенниуорт / Pennyworth
Год выпуска: 2019
Страна: США
Жанр: Боевик, драма, криминал
Продолжительность: ~ 01:12:00
Перевод: Профессиональный (многоголосый) | *Jaskier*
Субтитры: отсутствуют

Режиссер: Роб Бэйли, Билл Иглз, Дэнни Кэннон


В ролях
: Джек Бэннон, Палома Фэйт, Бен Элдридж, Джейсон Флеминг, Хэйнсли Ллойд Беннетт, Дороти Эткинсон, Эмма Коррин, Райан Флетчер, Иан Палстон-Дэвис, Ники Виккери и другие.

Описание: Альфред Пенниуорт — отставной офицер британского спецназа, который создаёт в Лондоне собственное охранное предприятие. Одним из его первых клиентов становится миллионер Томас Уэйн, отец будущего Бэтмена.

скриншот   ratingскриншот  

Качество: WEB-DLRip
Формат: AVI
Видео: XviD, ~ 1500 Кбит/с, 720x400
Аудио: 48.0 kHz, AC3, 2 ch, 384 Кбит/с
скриншот  скриншот  скриншот  

General
Complete name : E:\Pennyworth. Season 1 (400p l Jaskier)\Pennyworth.S01E01.Jaskier.avi
Format : AVI
Format/Info : Audio Video Interleave
File size : 894 MiB
Duration : 1 h 12 min
Overall bit rate : 1 729 kb/s
Writing application : VirtualDubMod 1.5.10.3 | www.virtualdub-fr.org || (build 2550/release)
Writing library : VirtualDubMod build 2550/release

Video
ID : 0
Format : MPEG-4 Visual
Format profile : Advanced Simple@L5
Format settings : BVOP2 / Custom Matrix
Format settings, BVOP : 2
Format settings, QPel : No
Format settings, GMC : No warppoints
Format settings, Matrix : Custom
Codec ID : XVID
Codec ID/Hint : XviD
Duration : 1 h 12 min
Bit rate : 1 332 kb/s
Width : 720 pixels
Height : 400 pixels
Display aspect ratio : 16:9
Frame rate : 23.976 (24000/1001) FPS
Color space : YUV
Chroma subsampling : 4:2:0
Bit depth : 8 bits
Scan type : Progressive
Compression mode : Lossy
Bits/(Pixel*Frame) : 0.193
Stream size : 689 MiB (77%)
Writing library : XviD 73

Audio
ID : 1
Format : MPEG Audio
Format version : Version 1
Format profile : Layer 3
Codec ID : 55
Codec ID/Hint : MP3
Duration : 1 h 12 min
Bit rate mode : Constant
Bit rate : 320 kb/s
Channel(s) : 2 channels
Sampling rate : 48.0 kHz
Compression mode : Lossy
Stream size : 166 MiB (19%)
Alignment : Aligned on interleaves

Когда раздача ведётся путём добавления новых серий, при каждом добавлении создётся новый торрент. Чтобы начать докачку новой серии, пользователям необходимо сделать следующее:
(1) остановить скачивание,
(2) удалить старый торрент у себя из клиента (старые серии удалять не надо),
(3) скачать новый торрент и запустить его у себя в клиенте вместо старого, при этом указать клиенту путь в старую папку, куда и должно происходить скачивание новых серий.
Ваш клиент при этом должен произвести хеширование (проверку) старой папки (если не производит сам - помогите ему сделать это), и будет докачивать только те серии, которых у вас ещё нет. Старые серии при этом не удаляются, а продолжают раздаваться!
Eсли вы уже удалили старые серии, то предотвратить повторную закачку старых серий можно, отжав галочку в соответсвующих местах при запуске нового торрента. По возможности, желательно не удалять старые серии как можно дольше, чтобы релизер не столько продолжал раздавать старые серии, а смог сконцентрироваться на новых.
pb.wtf



Скачать Пенниуорт через торрент https://funkyimg.com/i/2VGy2.jpg Скачать фильм Пенниуорт через торрент бесплантно в хорошем качестве Описание: Альфред Пенниуорт — отставной офицер британского спецназа, который создаёт в Лондоне собственное охранное предприятие. Одним из ... 10 10 2
Торрент: Зарегистрирован [2019-10-02 20:56] · скачан: 13 раз
Статус: T временная
Размер: 6.49 GB
Как cкачать? Как скачать Пенниуорт через торрент | qTorrent

% Раздел Тема Автор DL S | L
Зарубежные сериалы [ 30.48 GB ] Пенниуорт / Pennyworth / Сезон: 1 / Серии: 1-10 из 10 [2019 WEB-DL 1080p] MVO [NewStudio] bober100 Скачать
1 | 1
Зарубежные сериалы [ 6.04 GB ] Пенниуорт / Pennyworth / Сезон: 1 / Серии: 1-10 из 10 [2019 WEBRip-AVC] [DVO] killermax2013 Скачать
1 | 0
Зарубежные сериалы [ 31.19 GB ] Пенниуорт / Pennyworth / Сезон: 1 / Серии: 1-10 из 10 [2019 WEB-DL 1080p] MVO [Lostfilm] bober100 Скачать
1 | 0
Зарубежные сериалы [ 17.45 GB ] Пенниуорт / Pennyworth / Сезон: 1 / Серии: 1-10 из 10 [2019 WEB-DL 720p] DUB [Lucky Production] +MVO [Lostfilm] bober100 Скачать
1 | 0
Зарубежные сериалы [ 31.19 GB ] Пенниуорт / Pennyworth / Сезон: 1 / Серии: 1-10 из 10 [2019 WEB-DL 1080p] [MVO] killermax2013 Скачать
1 | 0
Зарубежные сериалы [ 15.25 GB ] Пенниуорт / Pennyworth / Сезон: 1 / Серии: 1-10 из 10 [2019 WEB-DL 720p] [MVO] killermax2013 Скачать
1 | 0
Зарубежные сериалы [ 30.18 GB ] Пенниуорт / Pennyworth / Сезон: 1 / Серии: 1-10 из 10 [2019 WEB-DL 1080p] [MVO] killermax2013 Скачать
1 | 0

28-11-2019 20:33  

Отключить всю рекламу на сайте

    Дорогой пользователь! Огромная просьба, поблагодарите релизера, оцените раздачу и оставьте свои комментарий, если Вы скачали Пенниуорт через торрент бесплатно! Внесите свою лепту в развитие PiratBit!
    Комментировать посты могут только пользователи прошедшие не сложную регистрацию
    Показать сообщения:    

    Пенниуорт через торрент
    Скачать бесплатно Пенниуорт
    Пенниуорт скачать торрент
    Пенниуорт смотреть онлайн
    Cкачать фильм Пенниуорт бесплатно
    Пенниуорт скачать торрент в хорошем качестве
    Пенниуорт смотреть онлайн бесплатно в хорошем качестве


    Вы не можете начинать темы
    Вы не можете отвечать на сообщения
    Вы не можете редактировать свои сообщения
    Вы не можете удалять свои сообщения
    Вы не можете голосовать в опросах
    Вы не можете прикреплять файлы к сообщениям
    Вы можете скачивать файлы