Ссылка на приватное зеркало нашего сайта всего за 1$. Внимание количество ограничено!!!

2 сезон

iTunes

1 сезон

1

2 сезон

2 сезон

iTunes

1 сезон

RePack

30

Ultimate

ВАЖНО

ИГРА 18+

pack

RePack

MK11
pack

Забери бонус

RePack

jed

!!Акция!!

Alien_Rage

RePack

fifa19

RePack

Assassins Creed: Odyssey

RePack

NEED FOR SPEED™ PAYBACK

4 сезон

9 сезон

Бесстыжие 9 сезон

Все сериалы

все сериалы на PB.wtf

RePack

FAR CRY 5
  

Гудини и Дойл / Houdini and Doyle / Сезон: 1 / Серии: 1-10 из 10 (Эдвард Базалгетт, Стивен Хопкинс) [2016, Драма, криминал, детектив, WEB-DL 1080p] DVO [SDI Media] pb.wtf

Гудини и Дойл через торрент pb.wtf

Размер: 16.52 GB | Добавлен: 1 год 3 мес. назад | Торрент скачан:6 раз
Скачать  

23-07-2019 19:25 Гудини и Дойл Скачать торрент  

Гудини и Дойл / Houdini and Doyle
Год выпуска: 2016
Страна: Великобритания Канада
Жанр: драма, криминал, детектив
Продолжительность: ~00:55:00
Перевод: Профессиональный двухголосый | SDI Media
Субтитры: отсутствуют

Режиссер: Эдвард Базалгетт, Стивен Хопкинс, Роберт Либерман

rating


В ролях:

Стивен Мэнгэн (Arthur Conan Doyle), Майкл Уэстон (Harry Houdini), Ребекка Лиддьярд (Adelaide Stratton), Эмили Кэри (Mary Conan Doyle), Noah Jupe (Kingsley Conan Doyle), Адам Нагаитис (George Gudgett), Тим МакИннерни (Horace Merring), CarneyPat (Upper class gent), Джерри-Джейн Пирс (Florrie), Кит Ломас (Audience), Бо Мартин (Young Woman), Симона Кирби (Sister Grace)
Описание: Великий иллюзионист своего века Гарри Гудини и не менее великий детективный писатель сэр Артур Конан Дойл, достигнув богатства и высот популярности, решают стать коллегами по новому ремеслу. Оба заинтересованы в раскрытии преступлений, где замешаны сверхъестественные мотивы. И это при том, что Дойл свято верит в мистику, а Гудини категорически её отрицает...

Качество: WEB-DL 1080p
Контейнер: MKV

Видео: MPEG 4/ISO/AVC, 1920x1080 (16:9), 25.000 fps, 5 120 kb/s
Аудио: Русский, AAC, 48.0 kHz, 2 ch, 256 kb/s
Аудио 2: English, AAC, 48.0 kHz, 2 ch, 256 kb/s
1. Возвращение Мэгги
2. Блюдо Адхармы
3. В Манус Деи
4. Прыгун Джек
5. Проклятие Коржи
6. Монстры Нетермора
7. Бедлам
8. Стригой
9. Некромантейон
10. Тень Лапьера
Video
ID : 1
Format : AVC
Format/Info : Advanced Video Codec
Format profile : High@L4
Format settings : CABAC / 4 Ref Frames
Format settings, CABAC : Yes
Format settings, Reference : 4 frames
Codec ID : V_MPEG4/ISO/AVC
Duration : 41 min 13 s
Bit rate : 5 120 kb/s
Width : 1 920 pixels
Height : 1 080 pixels
Display aspect ratio : 16:9
Frame rate mode : Constant
Frame rate : 25.000 FPS
Color space : YUV
Chroma subsampling : 4:2:0
Bit depth : 8 bits
Scan type : Progressive
Bits/(Pixel*Frame) : 0.099
Stream size : 1.47 GiB (91%)
Writing library : x264 core 142
Encoding settings : cabac=1 / ref=3 / deblock=1:0:0 / analyse=0x3:0x113 / me=hex / subme=7 / psy=1 / psy_rd=1.00:0.00 / mixed_ref=1 / me_range=16 / chroma_me=1 / trellis=1 / 8x8dct=1 / cqm=0 / deadzone=21,11 / fast_pskip=1 / chroma_qp_offset=-2 / threads=108 / lookahead_threads=8 / sliced_threads=0 / nr=0 / decimate=1 / interlaced=0 / bluray_compat=0 / constrained_intra=0 / bframes=6 / b_pyramid=2 / b_adapt=1 / b_bias=0 / direct=1 / weightb=1 / open_gop=0 / weightp=2 / keyint=50 / keyint_min=26 / scenecut=0 / intra_refresh=0 / rc_lookahead=40 / rc=2pass / mbtree=1 / bitrate=5120 / ratetol=1.0 / qcomp=0.60 / qpmin=0 / qpmax=69 / qpstep=4 / cplxblur=20.0 / qblur=0.5 / vbv_maxrate=7680 / vbv_bufsize=20480 / nal_hrd=none / filler=0 / ip_ratio=1.40 / aq=1:1.00
Language : English
Default : Yes
Forced : No

Audio #1
ID : 2
Format : AAC LC
Format/Info : Advanced Audio Codec Low Complexity
Codec ID : A_AAC-2
Duration : 41 min 13 s
Bit rate : 256 kb/s
Channel(s) : 2 channels
Channel layout : L R
Sampling rate : 48.0 kHz
Frame rate : 46.875 FPS (1024 SPF)
Compression mode : Lossy
Stream size : 75.5 MiB (5%)
Language : Russian
Default : Yes
Forced : No

Audio #2
ID : 3
Format : AAC LC
Format/Info : Advanced Audio Codec Low Complexity
Codec ID : A_AAC-2
Duration : 41 min 13 s
Bit rate : 256 kb/s
Channel(s) : 2 channels
Channel layout : L R
Sampling rate : 48.0 kHz
Frame rate : 46.875 FPS (1024 SPF)
Compression mode : Lossy
Stream size : 75.5 MiB (5%)
Language : English
Default : No
Forced : No
скриншот   скриншот   скриншот   скриншот   скриншот  
pb.wtf



Скачать Гудини и Дойл через торрент http://img10.lostpic.net/2016/05/17/d5a550f28d1cea986a4b8602f17371c2.png Скачать фильм Гудини и Дойл через торрент бесплантно в хорошем качестве Описание: Великий иллюзионист своего века Гарри Гудини и не менее великий детективный писатель сэр Артур Конан Дойл, достигнув богатства и ... 10 10 2
Торрент: Зарегистрирован [2019-07-23 19:37] · скачан: 6 раз
Статус: √ проверено
Размер: 16.52 GB
Как cкачать? Как скачать Гудини и Дойл через торрент | qTorrent

% Раздел Тема Автор DL S | L
Зарубежные сериалы [ 5.26 GB ] Гудини и Дойл / Houdini and Doyle / Сезон: 1 / Серии: 1-10 из 10 [2016 HDTVRip] MVO [NewStudio] bober100 Скачать
1 | 0
Зарубежные сериалы [ 23.18 GB ] Гудини и Дойл / Houdini and Doyle / Сезон: 1 / Серии: 1-10 из 10 [2016 HDTV 1080p] MVO [NewStudio] bober100 Скачать
1 | 0
Зарубежные сериалы [ 5.4 GB ] Гудини и Дойл / Houdini and Doyle / Сезон: 1 / Серии 1-6 из 10 [2016 HDTVRip-AVC] MVO [BaibaKo] GEKADOL Скачать
1 | 0

28-11-2019 20:33  

Отключить всю рекламу на сайте

    Дорогой пользователь! Огромная просьба, поблагодарите релизера, оцените раздачу и оставьте свои комментарий, если Вы скачали Гудини и Дойл через торрент бесплатно! Внесите свою лепту в развитие PiratBit!
    Комментировать посты могут только пользователи прошедшие не сложную регистрацию
    Показать сообщения:    

    Гудини и Дойл через торрент
    Скачать бесплатно Гудини и Дойл
    Гудини и Дойл скачать торрент
    Гудини и Дойл смотреть онлайн
    Cкачать фильм Гудини и Дойл бесплатно
    Гудини и Дойл скачать торрент в хорошем качестве
    Гудини и Дойл смотреть онлайн бесплатно в хорошем качестве


    Вы не можете начинать темы
    Вы не можете отвечать на сообщения
    Вы не можете редактировать свои сообщения
    Вы не можете удалять свои сообщения
    Вы не можете голосовать в опросах
    Вы не можете прикреплять файлы к сообщениям
    Вы можете скачивать файлы