Ссылка на приватное зеркало всего за 1$. Внимание количество ограничено!!!

OK

1+1

iTunes

мы

OK

1

WEB-DLRip

Джокер

Пифагор

Ведьмак / The Witcher сериал

Лицензия

ПШазам

ОК

Оно 2

iTunes

30
pack

Вам бонус

ВАЖНО

!!Акция!!

Alien_RageХит недели

RePack

Resident Evil 21

ИГРА 18+

pack

RePack

jed

!!Акция!!

Alien_Rage

RePack

fifa19

RePack

Assassins Creed: Odyssey

RePack

NEED FOR SPEED™ PAYBACK

4 сезон

9 сезон

Бесстыжие 9 сезон

Все сериалы

все сериалы на PB.wtf

RePack

FAR CRY 5
  

Покемон. Детектив Пикачу / Pokémon Detective Pikachu (Роб Леттерман) [2019, фантастика, фэнтези, детектив, приключения, семейный, BDRip 720p] DUB [Лицензия] +2xMVO [СВ Студия, HDrezka Studio] pb.wtf

Покемон. Детектив Пикачу через торрент pb.wtf

Раздают: 5 [ 54 KB/s ]
Размер: 4.12 GB | Добавлен: 5 мес. 24 д. назад | Торрент скачан:311 раз
Скачать  

23-07-2019 23:06 Покемон. Детектив Пикачу Скачать торрент  

Покемон. Детектив Пикачу / Pokémon Detective Pikachu
Год выпуска: 2019
Страна: США, Япония
Жанр: фантастика, фэнтези, детектив, приключения, семейный
Продолжительность: 01:44:29
Перевод:

#1: Дублированный | Лицензия
#2: Профессиональный (многоголосый) | СВ Студия
#3: Профессиональный (многоголосый) | HDRezka Studio

Субтитры: Русские (Forced, 2 x full), английские

Режиссер: Роб Леттерман

rating

В ролях: Райан Рейнольдс, Джастис Смит, Кэтрин Ньютон, Билл Найи, Кэн Ватанабэ, Крис Гир, Сьюки Уотерхаус, Джозетт Саймон, Алехандро Де Меса, Рита Ора

Описание: История начинается с таинственного исчезновения частного детектива экстра- класса Гарри Гудмана, расследовать которое предстоит его 21-летнему сыну Тиму. Помощь в расследовании ему окажет бывший партнер отца, детектив Пикачу - уморительный, остроумный и обаятельный сыщик, который является загадкой даже для себя самого. Обнаружив, что они каким-то фантастическим образом способны общаться друг с другом, Тим и Пикачу объединяют усилия в захватывающем расследовании этой запутанной истории. В погоне за уликами по неоновым улицам Райм Сити - современного разросшегося мегаполиса, где люди и покемоны живут бок о бок в гиперреалистичном мире игрового экшна, - они встречают самых разнообразных покемонов и раскрывают ужасный заговор, который способен разрушить это мирное сосуществование и стать угрозой для всей вселенной покемонов.

Качество: BDRip 720p
Формат: MKV

Видео: MPEG-4 AVC, 1280x536, 4176 Mbit/s, 23.976 fps
Аудио#1: 48 kHz, AC3, 5.1, 448 Kbps | Лицензия | RUS |
Аудио#2: 48 kHz, AC3, 2.0, 192 Kbps | СВ Студия | RUS |
Аудио#3: 48 kHz, AC3, 2.0, 192 Kbps | HDRezka Studio | RUS |
Аудио#4: 48 kHz, AC3, 5.1, 640 Kbps | Оригинал | ENG |
скриншот  скриншот  скриншот  скриншот  скриншот  

General
Unique ID : 281800377324792925872100020685322248295 (0xD400C74BF80C8AEAD8A752381792E067)
Complete name : D:Video111Pokemon.Detective.Pikachu.2019.BDRip.720p.seleZen.mkv
Format : Matroska
Format version : Version 4
File size : 4.12 GiB
Duration : 1 h 44 min
Overall bit rate : 5 650 kb/s
Movie name : Pokemon Detective Pikachu 2019 from селезень
Encoded date : UTC 2019-07-23 22:46:56
Writing application : mkvmerge v22.0.0 ('At The End Of The World') 64-bit
Writing library : libebml v1.3.5 + libmatroska v1.4.8

Video
ID : 1
Format : AVC
Format/Info : Advanced Video Codec
Format profile : High@L4.1
Format settings : CABAC / 12 Ref Frames
Format settings, CABAC : Yes
Format settings, Reference : 12 frames
Codec ID : V_MPEG4/ISO/AVC
Duration : 1 h 44 min
Bit rate : 4 176 kb/s
Width : 1 280 pixels
Height : 536 pixels
Display aspect ratio : 2.40:1
Frame rate mode : Constant
Frame rate : 23.976 (24000/1001) FPS
Color space : YUV
Chroma subsampling : 4:2:0
Bit depth : 8 bits
Scan type : Progressive
Bits/(Pixel*Frame) : 0.254
Stream size : 3.05 GiB (74%)
Title : seleZen
Writing library : x264 core 148 r2705kMod 3f5ed56
Encoding settings : cabac=1 / ref=12 / deblock=1:-2:-2 / analyse=0x3:0x133 / me=umh / subme=11 / psy=1 / fade_compensate=0.00 / psy_rd=1.20:0.05 / mixed_ref=1 / me_range=48 / chroma_me=1 / trellis=2 / 8x8dct=1 / cqm=0 / deadzone=21,11 / fast_pskip=0 / chroma_qp_offset=-3 / threads=12 / lookahead_threads=2 / sliced_threads=0 / nr=0 / decimate=0 / interlaced=0 / bluray_compat=0 / constrained_intra=0 / fgo=0 / bframes=8 / b_pyramid=2 / b_adapt=2 / b_bias=0 / direct=3 / weightb=1 / open_gop=0 / weightp=2 / keyint=240 / keyint_min=23 / scenecut=40 / intra_refresh=0 / rc_lookahead=50 / rc=2pass / mbtree=0 / bitrate=4176 / ratetol=1.0 / qcomp=0.60 / qpmin=0 / qpmax=51 / qpstep=4 / cplxblur=20.0 / qblur=0.5 / vbv_maxrate=50000 / vbv_bufsize=62500 / nal_hrd=none / filler=0 / ip_ratio=1.40 / pb_ratio=1.30 / aq=3:0.80
Language : English
Default : Yes
Forced : No

Audio #1
ID : 2
Format : AC-3
Format/Info : Audio Coding 3
Commercial name : Dolby Digital
Codec ID : A_AC3
Duration : 1 h 44 min
Bit rate mode : Constant
Bit rate : 448 kb/s
Channel(s) : 6 channels
Channel layout : L R C LFE Ls Rs
Sampling rate : 48.0 kHz
Frame rate : 31.250 FPS (1536 SPF)
Bit depth : 16 bits
Compression mode : Lossy
Stream size : 335 MiB (8%)
Title : Dub [License]
Language : Russian
Service kind : Complete Main
Default : Yes
Forced : Yes

Audio #2
ID : 3
Format : AC-3
Format/Info : Audio Coding 3
Commercial name : Dolby Digital
Codec ID : A_AC3
Duration : 1 h 44 min
Bit rate mode : Constant
Bit rate : 192 kb/s
Channel(s) : 2 channels
Channel layout : L R
Sampling rate : 48.0 kHz
Frame rate : 31.250 FPS (1536 SPF)
Bit depth : 16 bits
Compression mode : Lossy
Stream size : 143 MiB (3%)
Title : MVO [СВ Студия]
Language : Russian
Service kind : Complete Main
Default : No
Forced : No

Audio #3
ID : 4
Format : AC-3
Format/Info : Audio Coding 3
Commercial name : Dolby Digital
Codec ID : A_AC3
Duration : 1 h 44 min
Bit rate mode : Constant
Bit rate : 192 kb/s
Channel(s) : 2 channels
Channel layout : L R
Sampling rate : 48.0 kHz
Frame rate : 31.250 FPS (1536 SPF)
Bit depth : 16 bits
Compression mode : Lossy
Stream size : 143 MiB (3%)
Title : MVO [HDRezka Studio]
Language : Russian
Service kind : Complete Main
Default : No
Forced : No

Audio #4
ID : 5
Format : AC-3
Format/Info : Audio Coding 3
Commercial name : Dolby Digital
Codec ID : A_AC3
Duration : 1 h 44 min
Bit rate mode : Constant
Bit rate : 640 kb/s
Channel(s) : 6 channels
Channel layout : L R C LFE Ls Rs
Sampling rate : 48.0 kHz
Frame rate : 31.250 FPS (1536 SPF)
Bit depth : 16 bits
Compression mode : Lossy
Stream size : 478 MiB (11%)
Title : Original
Language : English
Service kind : Complete Main
Default : No
Forced : No

Text #1
ID : 6
Format : UTF-8
Codec ID : S_TEXT/UTF8
Codec ID/Info : UTF-8 Plain Text
Duration : 50 min 1 s
Bit rate : 1 b/s
Count of elements : 11
Stream size : 567 Bytes (0%)
Title : Forced [License]
Language : Russian
Default : Yes
Forced : Yes

Text #2
ID : 7
Format : UTF-8
Codec ID : S_TEXT/UTF8
Codec ID/Info : UTF-8 Plain Text
Duration : 1 h 43 min
Bit rate : 83 b/s
Count of elements : 1394
Stream size : 63.5 KiB (0%)
Title : Full [License]
Language : Russian
Default : No
Forced : No

Text #3
ID : 8
Format : UTF-8
Codec ID : S_TEXT/UTF8
Codec ID/Info : UTF-8 Plain Text
Duration : 1 h 34 min
Bit rate : 118 b/s
Count of elements : 1797
Stream size : 82.2 KiB (0%)
Title : Full v.2
Language : Russian
Default : No
Forced : No

Text #4
ID : 9
Format : UTF-8
Codec ID : S_TEXT/UTF8
Codec ID/Info : UTF-8 Plain Text
Duration : 1 h 33 min
Bit rate : 66 b/s
Count of elements : 1597
Stream size : 45.5 KiB (0%)
Title : Full
Language : English
Default : No
Forced : No

Text #5
ID : 10
Format : UTF-8
Codec ID : S_TEXT/UTF8
Codec ID/Info : UTF-8 Plain Text
Duration : 1 h 34 min
Bit rate : 77 b/s
Count of elements : 1900
Stream size : 53.8 KiB (0%)
Title : SDH
Language : English
Default : No
Forced : No

Menu
00:00:00.000 : en:Chapter 01
00:06:55.957 : en:Chapter 02
00:15:36.686 : en:Chapter 03
00:24:06.445 : en:Chapter 04
00:31:00.108 : en:Chapter 05
00:40:45.943 : en:Chapter 06
00:49:57.077 : en:Chapter 07
00:59:49.669 : en:Chapter 08
01:09:22.784 : en:Chapter 09
01:16:59.990 : en:Chapter 10
01:23:20.829 : en:Chapter 11
01:30:55.367 : en:Chapter 12
01:35:49.160 : en:Chapter 13

pb.wtf



Скачать Покемон. Детектив Пикачу через торрент https://i87.fastpic.ru/big/2019/0722/e4/cc001467c115bf8339ad6e479732b7e4.jpg Скачать фильм Покемон. Детектив Пикачу через торрент бесплантно в хорошем качестве Описание: История начинается с таинственного исчезновения частного детектива экстра- класса Гарри Гудмана, расследовать которое предстоит ... 9.9 10 8
Info! Золотая раздача, скачанное не засчитывается.
Торрент: Зарегистрирован [2019-07-23 23:06] · скачан: 311 раз
Статус: √ проверено
Размер: 4.12 GB
Как cкачать? Как скачать Покемон. Детектив Пикачу через торрент | qTorrent

% Раздел Тема Автор DL S | L
Фильмы (Blu-ray, BD-Remux, HDDVD) [ 43.36 GB ] Покемон. Пикачу / Pokémon Detective Pikachu [2019 Blu-ray EUR 1080p] DUB [] bober100 Скачать
2 | 0
Фильмы (HD 720p, 1080p) (48-60 fps) [ 20.92 GB ] Покемон. Пикачу / Pokémon Detective Pikachu [2019 BDRip 1080p 60 fps] [] sheker187 Скачать
1 | 0
3D Фильмы [ 22.53 GB ] Покемон. Пикачу в 3Д / Pokémon Detective Pikachu 3D [2019 семейн BDRip 1080p] OverUnder / Вертикальная стереопара serega768 Скачать
1 | 0
3D Фильмы [ 9.69 GB ] Покемон. Пикачу 3Д / Pokémon Detective Pikachu 3D [2019 BDRip 1080p] [Half OverUnder] DUB [] bober100 Скачать
3 | 0
Фильмы (HD 720p, 1080p) (48-60 fps) [ 5.86 GB ] Покемон. Пикачу / Pokémon Detective Pikachu [2019 BDRip-HEVC 10bit 1080p 60fps Dub MVO Original] Tiberiumsun69 Скачать
175 | 16
Фильмы 2019-2020 [DVDrip, WEB-DLRip, HDrip] (DUB, MVO) [ 771 MB ] Покемон. Пикачу / Pokémon Detective Pikachu [2019 BDRip] DUB [] bober100 Скачать
2 | 0
Фильмы 2019-2020 [DVDrip, WEB-DLRip, HDrip] (DUB, MVO) [ 2.18 GB ] Покемон. Пикачу / Pokémon Detective Pikachu [2019 BDRip] DUB [ BD 4K EUR] bober100 Скачать
4 | 0

28-11-2019 20:33  

Отключить всю рекламу на сайте

02-10-2019 10:10 Покемон. Детектив Пикачу Скачать торрент  

в принципе для семейного круга очень даже ничеpb.wtf



    Дорогой пользователь! Огромная просьба, поблагодарите релизера, оцените раздачу и оставьте свои комментарий, если Вы скачали Покемон. Детектив Пикачу через торрент бесплатно! Внесите свою лепту в развитие PiratBit!
    Комментировать посты могут только пользователи прошедшие не сложную регистрацию
    Показать сообщения:    

    Покемон. Детектив Пикачу через торрент
    Скачать бесплатно Покемон. Детектив Пикачу
    Покемон. Детектив Пикачу скачать торрент
    Покемон. Детектив Пикачу смотреть онлайн
    Cкачать фильм Покемон. Детектив Пикачу бесплатно
    Покемон. Детектив Пикачу скачать торрент в хорошем качестве
    Покемон. Детектив Пикачу смотреть онлайн бесплатно в хорошем качестве


    Вы не можете начинать темы
    Вы не можете отвечать на сообщения
    Вы не можете редактировать свои сообщения
    Вы не можете удалять свои сообщения
    Вы не можете голосовать в опросах
    Вы не можете прикреплять файлы к сообщениям
    Вы можете скачивать файлы