Всегда рабочее зеркало без VPN и Proxy просто перед .vidak.icu напиши любое слово или цифру, Пример http://pte5.vidak.icu

Лицензия

MVO

1 сезон

1

1 сезон

iTunes

1 сезон

13

1 сезон

Deluxe

pack

Рекомендуем

Repack

30

ВАЖНО

RePack

MK11

RePack

jed

RePack

fifa19

RePack

RDR2

RePack

NEED FOR SPEED™ PAYBACK

Кинопоиск HD

6 сезон

 Острые козырьки 6 сезон

Все сериалы

все сериалы на PB.wtf

RePack

FAR CRY 5
  
Magnet ссылка

Покемон. Детектив Пикачу / Pokémon Detective Pikachu (Роб Леттерман) [2019, фантастика, фэнтези, детектив, приключения, семейный, UHD BDRemux 2160p] DUB [Лицензия] +2xMVO [СВ Студия, HDrezka Studio] pb.wtf

Покемон. Детектив Пикачу через торрент pb.wtf

Размер: 49.99 GB | Добавлен: 3 года назад | Торрент скачан:65 раз
Смотреть онлайн Покемон. Детектив Пикачу | Скачать    Ребята, помогите собрать деньги на оплату серверов!!!

23-07-2019 23:12 Покемон. Детектив Пикачу Скачать торрент  

Покемон. Детектив Пикачу / Pokémon Detective Pikachu
Год выпуска: 2019
Страна: США, Япония
Жанр: фантастика, фэнтези, детектив, приключения, семейный
Продолжительность: 01:44:29
Перевод:

#1: Дублированный | Лицензия
#2: Профессиональный (многоголосый) | СВ Студия
#3: Профессиональный (многоголосый) | HDRezka Studio

Субтитры: Русские (Forced, 2 x full), английские

Режиссер: Роб Леттерман

rating

В ролях:

Райан Рейнольдс (Detective Pikachu, озвучка), Джастис Смит (Tim Goodman), Кэтрин Ньютон (Lucy Stevens), Билл Найи (Howard Clifford), Кэн Ватанабэ (Lieutenant Hide Yoshida), Крис Гир (Roger Clifford), Сьюки Уотерхаус (Ms. Norman), Джозетт Саймон (Grams), Алехандро Де Меса (Bartender), Рита Ора (Dr. Ann Laurent), Каран Сони (Jack), Макс Финчман (Young Tim Goodman)
Описание: История начинается с таинственного исчезновения частного детектива экстра- класса Гарри Гудмана, расследовать которое предстоит его 21-летнему сыну Тиму. Помощь в расследовании ему окажет бывший партнер отца, детектив Пикачу - уморительный, остроумный и обаятельный сыщик, который является загадкой даже для себя самого. Обнаружив, что они каким-то фантастическим образом способны общаться друг с другом, Тим и Пикачу объединяют усилия в захватывающем расследовании этой запутанной истории. В погоне за уликами по неоновым улицам Райм Сити - современного разросшегося мегаполиса, где люди и покемоны живут бок о бок в гиперреалистичном мире игрового экшна, - они встречают самых разнообразных покемонов и раскрывают ужасный заговор, который способен разрушить это мирное сосуществование и стать угрозой для всей вселенной покемонов.

Качество: UHD BDRemux 2160p
Формат: MKV

Видео: MPEG-4 AVC, 1920x804, 10.0 Mbit/s, 23.976 fps
Аудио#1: 48 kHz, AC3, 5.1, 448 Kbps | Лицензия | RUS |
Аудио#2: 48 kHz, AC3, 2.0, 192 Kbps | СВ Студия | RUS |
Аудио#3: 48 kHz, AC3, 2.0, 192 Kbps | HDRezka Studio | RUS |
Аудио#4: 48 kHz, TrueHD, 7.1, 3234 Kbps | Оригинал | ENG |
Аудио#5: 48 kHz, AC3, 5.1, 640 Kbps | Оригинал | ENG |
скриншот  скриншот  скриншот  скриншот  скриншот  

General
Unique ID : 153201044610304211680925293871503452064 (0x734172ABB6A32824E7773027CB4F27A0)
Complete name : D:Video111Pokemon.Detective.Pikachu.2019.BDREMUX.2160p.HDR.seleZen.mkv
Format : Matroska
Format version : Version 4
File size : 50.0 GiB
Duration : 1 h 44 min
Overall bit rate mode : Variable
Overall bit rate : 68.5 Mb/s
Movie name : Pokemon Detective Pikachu 2019 from селезень
Encoded date : UTC 2019-07-23 22:32:57
Writing application : mkvmerge v22.0.0 ('At The End Of The World') 64-bit
Writing library : libebml v1.3.5 + libmatroska v1.4.8

Video
ID : 1
Format : HEVC
Format/Info : High Efficiency Video Coding
Format profile : Main [email protected]@High
HDR format : SMPTE ST 2086, HDR10 compatible
Codec ID : V_MPEGH/ISO/HEVC
Duration : 1 h 44 min
Bit rate : 63.7 Mb/s
Width : 3 840 pixels
Height : 2 160 pixels
Display aspect ratio : 16:9
Frame rate mode : Constant
Frame rate : 23.976 (24000/1001) FPS
Color space : YUV
Chroma subsampling : 4:2:0 (Type 2)
Bit depth : 10 bits
Bits/(Pixel*Frame) : 0.320
Stream size : 46.5 GiB (93%)
Writing library : ATEME Titan File 3.9.0 (4.9.0.0)
Language : English
Default : Yes
Forced : No
Color range : Limited
Color primaries : BT.2020
Transfer characteristics : PQ
Matrix coefficients : BT.2020 non-constant
Mastering display color pri : Display P3
Mastering display luminance : min: 0.0050 cd/m2, max: 4000 cd/m2
Maximum Content Light Level : 200 cd/m2
Maximum Frame-Average Light : 89 cd/m2

Audio #1
ID : 2
Format : AC-3
Format/Info : Audio Coding 3
Commercial name : Dolby Digital
Codec ID : A_AC3
Duration : 1 h 44 min
Bit rate mode : Constant
Bit rate : 448 kb/s
Channel(s) : 6 channels
Channel layout : L R C LFE Ls Rs
Sampling rate : 48.0 kHz
Frame rate : 31.250 FPS (1536 SPF)
Bit depth : 16 bits
Compression mode : Lossy
Stream size : 335 MiB (1%)
Title : Dub [License]
Language : Russian
Service kind : Complete Main
Default : Yes
Forced : Yes

Audio #2
ID : 3
Format : AC-3
Format/Info : Audio Coding 3
Commercial name : Dolby Digital
Codec ID : A_AC3
Duration : 1 h 44 min
Bit rate mode : Constant
Bit rate : 192 kb/s
Channel(s) : 2 channels
Channel layout : L R
Sampling rate : 48.0 kHz
Frame rate : 31.250 FPS (1536 SPF)
Bit depth : 16 bits
Compression mode : Lossy
Stream size : 143 MiB (0%)
Title : MVO [СВ Студия]
Language : Russian
Service kind : Complete Main
Default : No
Forced : No

Audio #3
ID : 4
Format : AC-3
Format/Info : Audio Coding 3
Commercial name : Dolby Digital
Codec ID : A_AC3
Duration : 1 h 44 min
Bit rate mode : Constant
Bit rate : 192 kb/s
Channel(s) : 2 channels
Channel layout : L R
Sampling rate : 48.0 kHz
Frame rate : 31.250 FPS (1536 SPF)
Bit depth : 16 bits
Compression mode : Lossy
Stream size : 143 MiB (0%)
Title : MVO [HDRezka Studio]
Language : Russian
Service kind : Complete Main
Default : No
Forced : No

Audio #4
ID : 5
Format : MLP FBA 16-ch
Format/Info : Meridian Lossless Packing FBA with 16-channel presentation
Commercial name : Dolby TrueHD with Dolby Atmos
Codec ID : A_TRUEHD
Duration : 1 h 44 min
Bit rate mode : Variable
Bit rate : 3 234 kb/s
Maximum bit rate : 6 081 kb/s
Channel(s) : 8 channels
Channel layout : L R C LFE Ls Rs Lb Rb
Sampling rate : 48.0 kHz
Frame rate : 1 200.000 FPS (40 SPF)
Compression mode : Lossless
Stream size : 2.36 GiB (5%)
Title : Original
Language : English
Default : No
Forced : No
Number of dynamic objects : 15
Bed channel count : 1 channel
Bed channel configuration : LFE

Audio #5
ID : 6
Format : AC-3
Format/Info : Audio Coding 3
Commercial name : Dolby Digital
Codec ID : A_AC3
Duration : 1 h 44 min
Bit rate mode : Constant
Bit rate : 640 kb/s
Channel(s) : 6 channels
Channel layout : L R C LFE Ls Rs
Sampling rate : 48.0 kHz
Frame rate : 31.250 FPS (1536 SPF)
Bit depth : 16 bits
Compression mode : Lossy
Stream size : 478 MiB (1%)
Language : English
Service kind : Complete Main
Default : No
Forced : No

Text #1
ID : 7
Format : UTF-8
Codec ID : S_TEXT/UTF8
Codec ID/Info : UTF-8 Plain Text
Duration : 50 min 1 s
Bit rate : 1 b/s
Count of elements : 11
Stream size : 567 Bytes (0%)
Title : Forced [License]
Language : Russian
Default : Yes
Forced : Yes

Text #2
ID : 8
Format : UTF-8
Codec ID : S_TEXT/UTF8
Codec ID/Info : UTF-8 Plain Text
Duration : 1 h 43 min
Bit rate : 83 b/s
Count of elements : 1394
Stream size : 63.5 KiB (0%)
Title : Full [License]
Language : Russian
Default : No
Forced : No

Text #3
ID : 9
Format : UTF-8
Codec ID : S_TEXT/UTF8
Codec ID/Info : UTF-8 Plain Text
Duration : 1 h 34 min
Bit rate : 118 b/s
Count of elements : 1797
Stream size : 82.2 KiB (0%)
Title : Full v.2
Language : Russian
Default : No
Forced : No

Text #4
ID : 10
Format : UTF-8
Codec ID : S_TEXT/UTF8
Codec ID/Info : UTF-8 Plain Text
Duration : 1 h 33 min
Bit rate : 66 b/s
Count of elements : 1597
Stream size : 45.5 KiB (0%)
Title : Full
Language : English
Default : No
Forced : No

Text #5
ID : 11
Format : UTF-8
Codec ID : S_TEXT/UTF8
Codec ID/Info : UTF-8 Plain Text
Duration : 1 h 34 min
Bit rate : 77 b/s
Count of elements : 1900
Stream size : 53.8 KiB (0%)
Title : SDH
Language : English
Default : No
Forced : No

Menu
00:00:00.000 : en:Chapter 1
00:06:55.623 : en:Chapter 2
00:15:36.352 : en:Chapter 3
00:24:06.111 : en:Chapter 4
00:30:59.774 : en:Chapter 5
00:40:45.609 : en:Chapter 6
00:49:56.743 : en:Chapter 7
00:59:49.335 : en:Chapter 8
01:09:22.449 : en:Chapter 9
01:16:59.656 : en:Chapter 10
01:23:20.495 : en:Chapter 11
01:30:55.032 : en:Chapter 12
01:35:48.826 : en:Chapter 13

pb.wtf



Скачать Покемон. Детектив Пикачу через торрент http://img16.lostpic.net/2019/07/24/3e78d7d071883338f7ff0cba764aab36.jpg Скачать, смотреть онлайн Покемон. Детектив Пикачу бесплантно в хорошем качестве Описание: История начинается с таинственного исчезновения частного детектива экстра- класса Гарри Гудмана, расследовать которое предстоит ... 8 10 3
Торрент: Зарегистрирован [2019-07-23 23:12] · скачан: 65 раз
Статус: √ проверено
Размер: 49.99 GB
Как cкачать? Как скачать Покемон. Детектив Пикачу через торрент | UTorrent

% Раздел Тема Автор DL S | L
Фильмы (HD 720p, 1080p) (48-60 fps) [ 5.86 GB ] Покемон. Пикачу / Pokémon Detective Pikachu [2019 BDRip-HEVC 10bit 1080p 60fps Dub MVO Original] Tiberiumsun69 Скачать
15 | 3
Фильмы [HD 720p, 1080p] (Хороший звук DUB, MVO) [ 4.12 GB ] Покемон. Пикачу / Pokémon Detective Pikachu [2019 BDRip 720p] DUB [] +2xMVO [СВ Студия HDrezka Studio] bober100 Скачать
1 | 0
Фильмы (Blu-ray, BD-Remux, HDDVD) [ 43.36 GB ] Покемон. Пикачу / Pokémon Detective Pikachu [2019 Blu-ray EUR 1080p] DUB [] bober100 Скачать
1 | 0
Фильмы (HD 720p, 1080p) (48-60 fps) [ 20.92 GB ] Покемон. Пикачу / Pokémon Detective Pikachu [2019 BDRip 1080p 60 fps] [] sheker187 Скачать
1 | 0
3D Фильмы [ 22.53 GB ] Покемон. Пикачу в 3Д / Pokémon Detective Pikachu 3D [2019 семейн BDRip 1080p] OverUnder / Вертикальная стереопара serega768 Скачать
1 | 0
3D Фильмы [ 9.69 GB ] Покемон. Пикачу 3Д / Pokémon Detective Pikachu 3D [2019 BDRip 1080p] [Half OverUnder] DUB [] bober100 Скачать
1 | 0
Фильмы 2019-2020 [DVDrip, WEB-DLRip, HDrip] (DUB, MVO) [ 771 MB ] Покемон. Пикачу / Pokémon Detective Pikachu [2019 BDRip] DUB [] bober100 Скачать
1 | 0

28-11-2019 20:33  

Отключить вcю реклaмy на сайте

    Дорогой пользователь! Огромная просьба, поблагодарите релизера, оцените раздачу и оставьте свои комментарий, если Вы скачали Покемон. Детектив Пикачу через торрент бесплатно!
    Комментировать посты могут только пользователи прошедшие не сложную регистрацию
    Показать сообщения:    

    Покемон. Детектив Пикачу через торрент
    Скачать бесплатно Покемон. Детектив Пикачу
    Покемон. Детектив Пикачу скачать торрент
    Покемон. Детектив Пикачу смотреть онлайн
    Cкачать фильм Покемон. Детектив Пикачу бесплатно
    Покемон. Детектив Пикачу скачать торрент в хорошем качестве
    Покемон. Детектив Пикачу смотреть онлайн бесплатно в хорошем качестве


    Вы не можете начинать темы
    Вы не можете отвечать на сообщения
    Вы не можете редактировать свои сообщения
    Вы не можете удалять свои сообщения
    Вы не можете голосовать в опросах
    Вы не можете прикреплять файлы к сообщениям
    Вы можете скачивать файлы