Ссылка на приватное зеркало всего за 1$. Внимание количество ограничено!!!

OK

1+1

iTunes

мы

OK

1

WEB-DLRip

Джокер

Пифагор

Ведьмак / The Witcher сериал

iTunes

ПШазам

ОК

Оно 2

iTunes

30
pack

Вам бонус

ВАЖНО

!!Акция!!

Alien_RageХит недели

RePack

Resident Evil 21

ИГРА 18+

pack

RePack

jed

RePack

fifa19

RePack

Assassins Creed: Odyssey

RePack

NEED FOR SPEED™ PAYBACK

4 сезон

9 сезон

Бесстыжие 9 сезон

Все сериалы

все сериалы на PB.wtf

RePack

FAR CRY 5
  

Легенда о святом пропойце / La leggenda del santo bevitore / The Legend of the Holy Drinker (Эрманно Ольми) [1988, драма, BD Remux 1080р] [Remastered] AVO [А. Гаврилов] pb.wtf

Легенда о святом пропойце через торрент pb.wtf

Размер: 36.87 GB | Добавлен: 6 мес. назад | Торрент скачан:3 раза
Скачать  

24-07-2019 18:55 Легенда о святом пропойце Скачать торрент  

Легенда о святом пропойце / La leggenda del santo bevitore / The Legend of the Holy Drinker
Год выпуска: 1988
Страна: Италия, Франция
Жанр: драма
Продолжительность: 02:07:36
Перевод: Авторский (одноголосый) | Андрей Гаврилов
Субтитры: английские (для слабослышащих), итальянские

Режиссер: Эрманно Ольми

rating

В ролях: Рутгер Хауэр, Энтони Куэйл, Сандрин Дюма, Доминик Пинон, Софи Сегалан, Сесиль Паоли, Жан-Морис Шане, Джозеф Де Медина, Франческо Альдигьери, Франсуаз Пинквассер, Жозефин Лекаль, Мария Маззокко, Далила Белатреке

Описание: Незнакомец одаривает бездомного бродягу, главного героя, 200 франками, прося его вернуть их местной церкви, когда тот сможет; бродяга, главный герой картины, даёт обещание расплатиться. На протяжении фильма он пытается сдержать своё обещание, натыкаясь на различные препятствия.

Качество: BD Remux 1080р | Remastered
Формат: MKV

Видео: 34990 Кбит/сек, 1920x1080 (16:9), 23,976 кадра/сек
Аудио#1: Русский, 256 Кбит/сек, 48,0 КГц, 16 бит, 2 канала, AC-3
Аудио#2: Английский, DTS MA: 5.1 / 48,0 КГц / 3434 Кбит/сек / 24 бит / (DTS Core: 5.1 / 48,0 КГц / 768 Кбит/сек / 24 бит)
Аудио#3: Английский, 1294 Кбит/сек, 48,0 КГц, 24 бит, 2 канала, FLAC
Аудио#4: Итальянский, 1381 Кбит/сек, 48,0 КГц, 24 бит, 2 канала, FLAC
скриншот  скриншот  скриншот  скриншот  

Общее
Уникальный идентификатор : 240092535010742371963814091511885217082 (0xB4A023E8160B1E42C52C5DC079A03D3A)
Полное имя : киноЛегенда о святом пропойце (1988) BDRemux 1080p.mkv
Формат : Matroska
Версия формата : Version 4
Размер файла : 36,9 Гбайт
Продолжительность : 2 ч. 7 м.
Режим общего битрейта : Переменный
Общий поток : 41,3 Мбит/сек
Название фильма : La leggenda del santo bevitore (1988)
Дата кодирования : UTC 2018-10-14 13:02:08
Программа кодирования : mkvmerge v26.0.0 ('In The Game') 64-bit
Библиотека кодирования : libebml v1.3.6 + libmatroska v1.4.9

Видео
Идентификатор : 1
Формат : AVC
Формат/Информация : Advanced Video Codec
Профиль формата : High@L4.1
Настройки формата : CABAC / 3 Ref Frames
Параметр CABAC формата : Да
Параметр RefFrames формата : 3 кадра
Идентификатор кодека : V_MPEG4/ISO/AVC
Продолжительность : 2 ч. 7 м.
Вид битрейта : Переменный
Битрейт : 35,0 Мбит/сек
Максимальный битрейт : 37,0 Мбит/сек
Ширина : 1920 пикселей
Высота : 1080 пикселей
Соотношение сторон : 16:9
Режим частоты кадров : Постоянный
Частота кадров : 23,976 (24000/1001) кадра/сек
Цветовое пространство : YUV
Субдискретизация насыщенности : 4:2:0
Битовая глубина : 8 бит
Тип развёртки : Прогрессивная
Бит/(Пиксели*Кадры) : 0.704
Размер потока : 31,2 Гбайт (85%)
Библиотека кодирования : x264 core 148 r2705 3f5ed56
Настройки программы : cabac=1 / ref=4 / deblock=0:-1:-1 / analyse=0x3:0x133 / me=umh / subme=10 / psy=1 / psy_rd=1.00:0.15 / mixed_ref=1 / me_range=24 / chroma_me=1 / trellis=2 / 8x8dct=1 / cqm=0 / deadzone=21,11 / fast_pskip=1 / chroma_qp_offset=-3 / threads=12 / lookahead_threads=1 / sliced_threads=0 / slices=4 / nr=0 / decimate=1 / interlaced=0 / bluray_compat=1 / constrained_intra=0 / bframes=3 / b_pyramid=1 / b_adapt=2 / b_bias=0 / direct=3 / weightb=1 / open_gop=1 / weightp=1 / keyint=24 / keyint_min=1 / scenecut=40 / intra_refresh=0 / rc_lookahead=24 / rc=abr / mbtree=0 / bitrate=35000 / ratetol=1.0 / qcomp=0.30 / qpmin=0 / qpmax=69 / qpstep=4 / vbv_maxrate=37000 / vbv_bufsize=27750 / nal_hrd=vbr / filler=0 / ip_ratio=1.40 / pb_ratio=1.30 / aq=1:0.50
Язык : Italian
Default : Да
Forced : Нет
Цветовой диапазон : Limited
Основные цвета : BT.709
Характеристики трансфера : BT.709
Коэффициенты матрицы : BT.709

Аудио #1
Идентификатор : 2
Формат : AC-3
Формат/Информация : Audio Coding 3
Коммерческое название : Dolby Digital
Идентификатор кодека : A_AC3
Продолжительность : 2 ч. 7 м.
Вид битрейта : Постоянный
Битрейт : 256 Кбит/сек
Каналы : 2 канала
Channel layout : L R
Частота : 48,0 КГц
Частота кадров : 31,250 кадров/сек (1536 SPF)
Битовая глубина : 16 бит
Метод сжатия : С потерями
Размер потока : 234 Мбайт (1%)
Заголовок : AVO
Язык : Russian
ServiceKind : Complete Main
Default : Да
Forced : Нет

Аудио #2
Идентификатор : 3
Формат : DTS XLL
Формат/Информация : Digital Theater Systems
Коммерческое название : DTS-HD Master Audio
Идентификатор кодека : A_DTS
Продолжительность : 2 ч. 7 м.
Вид битрейта : Переменный
Битрейт : 3434 Кбит/сек
Каналы : 6 каналов
Channel layout : C L R Ls Rs LFE
Частота : 48,0 КГц
Частота кадров : 93,750 кадра/сек (512 SPF)
Битовая глубина : 24 бит
Метод сжатия : Без потерь
Размер потока : 3,06 Гбайт (8%)
Заголовок : original
Язык : English
Default : Нет
Forced : Нет

Аудио #3
Идентификатор : 4
Формат : FLAC
Формат/Информация : Free Lossless Audio Codec
Идентификатор кодека : A_FLAC
Продолжительность : 2 ч. 7 м.
Вид битрейта : Переменный
Битрейт : 1294 Кбит/сек
Каналы : 2 канала
Channel layout : L R
Частота : 48,0 КГц
Частота кадров : 11,719 кадров/сек (4096 SPF)
Битовая глубина : 24 бит
Метод сжатия : Без потерь
Размер потока : 1,15 Гбайт (3%)
Заголовок : original
Библиотека кодирования : libFLAC 1.2.1 (UTC 2007-09-17)
Язык : English
Default : Нет
Forced : Нет

Аудио #4
Идентификатор : 5
Формат : FLAC
Формат/Информация : Free Lossless Audio Codec
Идентификатор кодека : A_FLAC
Продолжительность : 2 ч. 7 м.
Вид битрейта : Переменный
Битрейт : 1381 Кбит/сек
Каналы : 2 канала
Channel layout : L R
Частота : 48,0 КГц
Частота кадров : 11,719 кадров/сек (4096 SPF)
Битовая глубина : 24 бит
Метод сжатия : Без потерь
Размер потока : 1,23 Гбайт (3%)
Заголовок : original
Библиотека кодирования : libFLAC 1.2.1 (UTC 2007-09-17)
Язык : Italian
Default : Нет
Forced : Нет

Текст #1
Идентификатор : 6
Формат : UTF-8
Идентификатор кодека : S_TEXT/UTF8
Идентификатор кодека/Информация : UTF-8 Plain Text
Продолжительность : 2 ч. 4 м.
Битрейт : 14 бит/сек
ElementCount : 520
Размер потока : 12,8 Кбайт (0%)
Заголовок : SDH
Язык : English
Default : Нет
Forced : Нет

Текст #2
Идентификатор : 7
Формат : UTF-8
Идентификатор кодека : S_TEXT/UTF8
Идентификатор кодека/Информация : UTF-8 Plain Text
Продолжительность : 2 ч. 0 м.
Битрейт : 13 бит/сек
ElementCount : 411
Размер потока : 11,8 Кбайт (0%)
Заголовок : srt
Язык : Italian
Default : Нет
Forced : Нет

Меню
00:00:00.000 : en:Chapter 1
00:11:24.642 : en:Chapter 2
00:19:48.979 : en:Chapter 3
00:31:52.118 : en:Chapter 4
00:41:11.385 : en:Chapter 5
00:51:34.841 : en:Chapter 6
01:02:18.776 : en:Chapter 7
01:14:02.896 : en:Chapter 8
01:24:53.338 : en:Chapter 9
01:38:14.346 : en:Chapter 10
01:45:39.541 : en:Chapter 11
01:56:25.895 : en:Chapter 12

pb.wtf



Скачать Легенда о святом пропойце через торрент http://img10.lostpic.net/2018/10/18/b2f00d4e1f0f3c2e03ce96505ff2b6e3.png Скачать фильм Легенда о святом пропойце через торрент бесплантно в хорошем качестве Описание: Незнакомец одаривает бездомного бродягу, главного героя, 200 франками, прося его вернуть их местной церкви, когда тот сможет; ... 10 10 3
Info! Золотая раздача, скачанное не засчитывается.
Торрент: Зарегистрирован [2019-07-24 18:55] · скачан: 3 раз
Статус: √ проверено
Размер: 36.87 GB
Как cкачать? Как скачать Легенда о святом пропойце через торрент | qTorrent

28-11-2019 20:33  

Отключить всю рекламу на сайте

    Дорогой пользователь! Огромная просьба, поблагодарите релизера, оцените раздачу и оставьте свои комментарий, если Вы скачали Легенда о святом пропойце через торрент бесплатно! Внесите свою лепту в развитие PiratBit!
    Комментировать посты могут только пользователи прошедшие не сложную регистрацию
    Показать сообщения:    

    Легенда о святом пропойце через торрент
    Скачать бесплатно Легенда о святом пропойце
    Легенда о святом пропойце скачать торрент
    Легенда о святом пропойце смотреть онлайн
    Cкачать фильм Легенда о святом пропойце бесплатно
    Легенда о святом пропойце скачать торрент в хорошем качестве
    Легенда о святом пропойце смотреть онлайн бесплатно в хорошем качестве


    Вы не можете начинать темы
    Вы не можете отвечать на сообщения
    Вы не можете редактировать свои сообщения
    Вы не можете удалять свои сообщения
    Вы не можете голосовать в опросах
    Вы не можете прикреплять файлы к сообщениям
    Вы можете скачивать файлы