Ссылка на приватное зеркало всего за 1$. Внимание количество ограничено!!!

iTunes

1+1

iTunes

мы

WEB-DL

1

iTunes

Чернобыль

iTunes

Ральф против интернета

Лицензия

ПШазам

Лицензия

Оно 2

Лицензия

30
pack

Вам бонус

ВАЖНО

!!Акция!!

Alien_RageХит недели

RePack

Resident Evil 21

ИГРА 18+

pack

RePack

jed

!!Акция!!

Alien_Rage

RePack

fifa19

RePack

Assassins Creed: Odyssey

RePack

NEED FOR SPEED™ PAYBACK

3 сезон

9 сезон

Бесстыжие 9 сезон

Все сериалы

все сериалы на PB.wtf

RePack

FAR CRY 5
Ребята, катастрофически не хватает 1900р. для оплаты серверов за Октябрь (всвязи с блокировками трафик упал в 3 раза), 1-2р., выручайте.
  

Вне закона / Le marginal (Жак Дере) [1983, драма, криминал, боевик, триллер, BDRip 1080p by msltel] DUB, 3 x MVO, 3 x AVO pb.wtf

Вне закона через торрент pb.wtf

Размер: 14.64 GB | Добавлен: 4 мес. 20 д. назад | Торрент скачан:4 раза
Скачать  

25-07-2019 06:28 Вне закона Скачать торрент  

Название: Вне закона
Оригинальное название: Le marginal
Год выпуска: 1983
Страна: Франция
Жанр: драма, криминал, боевик, триллер
Продолжительность: 01:42:22
Перевод: дублированный, профессиональный многоголосый, профессиональный двухголосый, авторский

Режиссер: Жак Дере
В ролях: Жан-Поль Бельмондо, Генри Сильва, Карлос Сотто Майор, Пьер Вернье, Морис Барье, Клод Броссе, Чеки Карио, Жак Мори, Роже Дюма, Габриэль Каттан, Мишель Робен, Жак Давид, Жан-Луи Ришар, Дидье Совегран, Стефан Феррара, Даниэль Бретон, Жан-Роже Мило, Дани Коган, Анри Атталь, Жан-Клод Дрейфюс

О фильме: Бескомпромиссный комиссар полиции преследует крупного марсельского наркобарона. Преступный босс пытается купить комиссара, как и многих других до него, но главный герой отвергает сделку, продолжая сражаться в одиночку...



Качество: BDRip 1080p
Формат: MKV
Видео: MPEG-4 AVC, 15 Mбит/с, 1778x1080, 23.976 кадр/с
Аудио 1: русский, AC3, 192 kbps, 2 ch, 48 kHz [дублированный, со вставками MVO]
Аудио 2: русский, AC3, 192 kbps, 2 ch, 48 kHz [закадровый многоголосый, DVD-Group]
Аудио 3: русский, AC3, 192 kbps, 2 ch, 48 kHz [закадровый многоголосый, HTB]
Аудио 4: русский, AC3, 192 kbps, 2 ch, 48 kHz [закадровый многоголосый, Neoclassica]
Аудио 5: русский, DTS, 1509 kbps, 2 ch, 48 kHz [авторский, Леонид Володарский]
Аудио 6: русский, AC3, 192 kbps, 2 ch, 48 kHz [авторский, Павел Прямостанов]
Аудио 7: русский, DTS, 1509 kbps, 2 ch, 48 kHz [авторский, Роман Янкелевич]
Аудио 8: французский, DTS, 1509 kbps, 2 ch, 48 kHz [оригинал]
Субтитры 1: русские
Субтитры 2: английские
Главы/чаптеры
Общее
Уникальный идентификатор : 230867663111139751860817930297295018082 (0xADAF7E9B546E9C639F31AE9CC39C9862)
Полное имя : D:\Video\Вне закона.1983.BDRip 1080p by msltel.mkv
Формат : Matroska
Версия формата : Version 4
Размер файла : 14,6 Гбайт
Продолжительность : 1 ч. 42 м.
Общий поток : 20,5 Мбит/сек
Название фильма : Rip by msltel
Дата кодирования : UTC 2019-07-25 04:48:40
Программа кодирования : mkvmerge v8.2.0 ('World of Adventure') 64bit
Библиотека кодирования : libebml v1.3.1 + libmatroska v1.4.2

Видео
Идентификатор : 1
Формат : AVC
Формат/Информация : Advanced Video Codec
Профиль формата : High@L4.1
Настройки формата : CABAC / 4 Ref Frames
Параметр CABAC формата : Да
Параметр RefFrames формата : 4 кадра
Идентификатор кодека : V_MPEG4/ISO/AVC
Продолжительность : 1 ч. 42 м.
Битрейт : 15,0 Мбит/сек
Ширина : 1778 пикселей
Высота : 1080 пикселей
Соотношение сторон : 16:10
Режим частоты кадров : Постоянный
Частота кадров : 23,976 (24000/1001) кадра/сек
Цветовое пространство : YUV
Субдискретизация насыщенности : 4:2:0
Битовая глубина : 8 бит
Тип развёртки : Прогрессивная
Бит/(Пиксели*Кадры) : 0.325
Размер потока : 10,7 Гбайт (73%)
Библиотека кодирования : x264 core 157 r2935 545de2f
Настройки программы : cabac=1 / ref=4 / deblock=1:-2:-2 / analyse=0x3:0x113 / me=umh / subme=11 / psy=1 / psy_rd=1.00:0.15 / mixed_ref=1 / me_range=32 / chroma_me=1 / trellis=2 / 8x8dct=1 / cqm=0 / deadzone=21,11 / fast_pskip=0 / chroma_qp_offset=-3 / threads=6 / lookahead_threads=1 / sliced_threads=0 / nr=0 / decimate=1 / interlaced=0 / bluray_compat=0 / constrained_intra=0 / bframes=12 / b_pyramid=2 / b_adapt=2 / b_bias=0 / direct=1 / weightb=1 / open_gop=0 / weightp=2 / keyint=230 / keyint_min=23 / scenecut=40 / intra_refresh=0 / rc_lookahead=40 / rc=crf / mbtree=1 / crf=19.5 / qcomp=0.60 / qpmin=0 / qpmax=69 / qpstep=4 / vbv_maxrate=50000 / vbv_bufsize=62500 / crf_max=0.0 / nal_hrd=none / filler=0 / ip_ratio=1.40 / aq=1:1.00
Язык : French
Default : Да
Forced : Нет

Аудио #1
Идентификатор : 2
Формат : AC-3
Формат/Информация : Audio Coding 3
Коммерческое название : Dolby Digital
Идентификатор кодека : A_AC3
Продолжительность : 1 ч. 42 м.
Вид битрейта : Постоянный
Битрейт : 192 Кбит/сек
Каналы : 2 канала
ChannelLayout : L R
Частота : 48,0 КГц
Частота кадров : 31,250 кадров/сек (1536 SPF)
Битовая глубина : 16 бит
Метод сжатия : С потерями
Размер потока : 141 Мбайт (1%)
Заголовок : DUB со вставками MVO
Язык : Russian
ServiceKind/String : Complete Main
Default : Да
Forced : Нет

Аудио #2
Идентификатор : 3
Формат : AC-3
Формат/Информация : Audio Coding 3
Коммерческое название : Dolby Digital
Идентификатор кодека : A_AC3
Продолжительность : 1 ч. 42 м.
Вид битрейта : Постоянный
Битрейт : 192 Кбит/сек
Каналы : 2 канала
ChannelLayout : L R
Частота : 48,0 КГц
Частота кадров : 31,250 кадров/сек (1536 SPF)
Битовая глубина : 16 бит
Метод сжатия : С потерями
Размер потока : 141 Мбайт (1%)
Заголовок : MVO DVD-Group
Язык : Russian
ServiceKind/String : Complete Main
Default : Нет
Forced : Нет

Аудио #3
Идентификатор : 4
Формат : AC-3
Формат/Информация : Audio Coding 3
Коммерческое название : Dolby Digital
Идентификатор кодека : A_AC3
Продолжительность : 1 ч. 42 м.
Вид битрейта : Постоянный
Битрейт : 192 Кбит/сек
Каналы : 2 канала
ChannelLayout : L R
Частота : 48,0 КГц
Частота кадров : 31,250 кадров/сек (1536 SPF)
Битовая глубина : 16 бит
Метод сжатия : С потерями
Размер потока : 141 Мбайт (1%)
Заголовок : MVO HTB
Язык : Russian
ServiceKind/String : Complete Main
Default : Нет
Forced : Нет

Аудио #4
Идентификатор : 5
Формат : AC-3
Формат/Информация : Audio Coding 3
Коммерческое название : Dolby Digital
Идентификатор кодека : A_AC3
Продолжительность : 1 ч. 42 м.
Вид битрейта : Постоянный
Битрейт : 192 Кбит/сек
Каналы : 2 канала
ChannelLayout : L R
Частота : 48,0 КГц
Частота кадров : 31,250 кадров/сек (1536 SPF)
Битовая глубина : 16 бит
Метод сжатия : С потерями
Размер потока : 141 Мбайт (1%)
Заголовок : MVO Neoclassica
Язык : Russian
ServiceKind/String : Complete Main
Default : Нет
Forced : Нет

Аудио #5
Идентификатор : 6
Формат : DTS
Формат/Информация : Digital Theater Systems
Идентификатор кодека : A_DTS
Продолжительность : 1 ч. 42 м.
Вид битрейта : Постоянный
Битрейт : 1509 Кбит/сек
Каналы : 2 канала
ChannelLayout : L R
Частота : 48,0 КГц
Частота кадров : 93,750 кадра/сек (512 SPF)
Битовая глубина : 16 бит
Метод сжатия : С потерями
Размер потока : 1,08 Гбайт (7%)
Заголовок : Леонид Володарский
Язык : Russian
Default : Нет
Forced : Нет

Аудио #6
Идентификатор : 7
Формат : AC-3
Формат/Информация : Audio Coding 3
Коммерческое название : Dolby Digital
Идентификатор кодека : A_AC3
Продолжительность : 1 ч. 42 м.
Вид битрейта : Постоянный
Битрейт : 192 Кбит/сек
Каналы : 2 канала
ChannelLayout : L R
Частота : 48,0 КГц
Частота кадров : 31,250 кадров/сек (1536 SPF)
Битовая глубина : 16 бит
Метод сжатия : С потерями
Размер потока : 141 Мбайт (1%)
Заголовок : Павел Прямостанов
Язык : Russian
ServiceKind/String : Complete Main
Default : Нет
Forced : Нет

Аудио #7
Идентификатор : 8
Формат : DTS
Формат/Информация : Digital Theater Systems
Идентификатор кодека : A_DTS
Продолжительность : 1 ч. 42 м.
Вид битрейта : Постоянный
Битрейт : 1509 Кбит/сек
Каналы : 2 канала
ChannelLayout : L R
Частота : 48,0 КГц
Частота кадров : 93,750 кадра/сек (512 SPF)
Битовая глубина : 16 бит
Метод сжатия : С потерями
Размер потока : 1,08 Гбайт (7%)
Заголовок : Роман Янкелевич
Язык : Russian
Default : Нет
Forced : Нет

Аудио #8
Идентификатор : 9
Формат : DTS
Формат/Информация : Digital Theater Systems
Идентификатор кодека : A_DTS
Продолжительность : 1 ч. 42 м.
Вид битрейта : Постоянный
Битрейт : 1509 Кбит/сек
Каналы : 2 канала
ChannelLayout : L R
Частота : 48,0 КГц
Частота кадров : 93,750 кадра/сек (512 SPF)
Битовая глубина : 16 бит
Метод сжатия : С потерями
Размер потока : 1,08 Гбайт (7%)
Заголовок : original
Язык : French
Default : Нет
Forced : Нет

Текст #1
Идентификатор : 10
Формат : UTF-8
Идентификатор кодека : S_TEXT/UTF8
Идентификатор кодека/Информация : UTF-8 Plain Text
Продолжительность : 1 ч. 39 м.
Битрейт : 55 бит/сек
ElementCount : 777
Размер потока : 40,2 Кбайт (0%)
Заголовок : русские
Язык : Russian
Default : Нет
Forced : Нет

Текст #2
Идентификатор : 11
Формат : UTF-8
Идентификатор кодека : S_TEXT/UTF8
Идентификатор кодека/Информация : UTF-8 Plain Text
Продолжительность : 1 ч. 36 м.
Битрейт : 55 бит/сек
ElementCount : 662
Размер потока : 39,1 Кбайт (0%)
Заголовок : русские
Язык : Russian
Default : Нет
Forced : Нет

Текст #3
Идентификатор : 12
Формат : UTF-8
Идентификатор кодека : S_TEXT/UTF8
Идентификатор кодека/Информация : UTF-8 Plain Text
Продолжительность : 1 ч. 38 м.
Битрейт : 40 бит/сек
ElementCount : 917
Размер потока : 29,5 Кбайт (0%)
Заголовок : английские
Язык : English
Default : Нет
Forced : Нет

Меню
00:00:00.000 : :Chapter 1
00:08:14.785 : :Chapter 2
00:20:22.135 : :Chapter 3
00:35:40.137 : :Chapter 4
00:48:15.266 : :Chapter 5
01:02:03.927 : :Chapter 6
01:15:41.411 : :Chapter 7
01:27:49.136 : :Chapter 8
pb.wtf



Скачать Вне закона через торрент https://a.radikal.ru/a14/1907/ef/53d9660e6260.jpg Скачать фильм Вне закона через торрент бесплантно в хорошем качестве О фильме: Бескомпромиссный комиссар полиции преследует крупного марсельского наркобарона. Преступный босс пытается купить комиссара, как и ... 10 10 1
Торрент: Зарегистрирован [2019-07-25 06:28] · скачан: 4 раз
Статус: √ проверено
Размер: 14.64 GB
Как cкачать? Как скачать Вне закона через торрент | qTorrent

% Раздел Тема Автор DL S | L
Классика зарубежного кино [ 4.87 GB ] Вне закона / Le marginal [1983 BDRip 720p by msltel] DUB 3 x MVO 3 x AVO msltel Скачать
2 | 0

28-11-2019 20:33  

Отключить всю рекламу на сайте

26-07-2019 02:08 Вне закона Скачать торрент  

Топик был перенесен из форума Фильмы [HD 720p, 1080p] (Хороший звук DUB, MVO) в форум Классика зарубежного кино


bober100pb.wtf



    Дорогой пользователь! Огромная просьба, поблагодарите релизера, оцените раздачу и оставьте свои комментарий, если Вы скачали Вне закона через торрент бесплатно! Внесите свою лепту в развитие PiratBit!
    Комментировать посты могут только пользователи прошедшие не сложную регистрацию
    Показать сообщения:    

    Вне закона через торрент
    Скачать бесплатно Вне закона
    Вне закона скачать торрент
    Вне закона смотреть онлайн
    Cкачать фильм Вне закона бесплатно
    Вне закона скачать торрент в хорошем качестве
    Вне закона смотреть онлайн бесплатно в хорошем качестве


    Вы не можете начинать темы
    Вы не можете отвечать на сообщения
    Вы не можете редактировать свои сообщения
    Вы не можете удалять свои сообщения
    Вы не можете голосовать в опросах
    Вы не можете прикреплять файлы к сообщениям
    Вы можете скачивать файлы