Ссылка на приватное зеркало нашего сайта всего за 1$. Внимание количество ограничено!!!

2 сезон

iTunes

1 сезон

1

2 сезон

2 сезон

iTunes

1 сезон

RePack

30

Ultimate

ВАЖНО

ИГРА 18+

pack

RePack

MK11
pack

Забери бонус

RePack

jed

!!Акция!!

Alien_Rage

RePack

fifa19

RePack

Assassins Creed: Odyssey

RePack

NEED FOR SPEED™ PAYBACK

4 сезон

9 сезон

Бесстыжие 9 сезон

Все сериалы

все сериалы на PB.wtf

RePack

FAR CRY 5
  

Ладья / The Rook / Сезон: 1 / Серии: 1-8 из 8 (Чина Му-Ен, Кари Скогланд, Суну Гонера) [2019, фэнтези, триллер, драма, WEB-DL 720p] MVO [TVShows] pb.wtf

Ладья через торрент pb.wtf

Размер: 14.12 GB | Добавлен: 1 год 3 мес. назад | Торрент скачан:4 раза
Скачать  

25-07-2019 08:49 Ладья Скачать торрент  

Ладья / The Rook
Год выпуска: 2019
Страна: США
Жанр: фэнтези, триллер, драма
Продолжительность: ~ 00:52:00
Перевод: Профессиональный многоголосый | TVShows
Субтитры: английские

Режиссер: Чина Му-Ен, Кари Скогланд, Суну Гонера

rating


В ролях: Эмма Гринвелл, Джон Флетчер, Адриан Лестер, Рут Маделей, Оливия Манн, Ронан Рафтери, Джоэли Ричардсон, Джошуа Сквайр, Катрин Стэдмен, Тоби Кордес

Описание: В центре сюжета сериала, основанного на одноименном романе Дэниела О’Мэлли, находится Мифанви Томас — девушка из Лондона, которая однажды просыпается посреди горы трупов и не может вспомнить, кто она такая и что с ней случилось. Вскоре героиня выясняет, что работает в сверхсекретной службе Великобритании, состоящей из людей со сверхспособностями, и носит псевдоним Ладья. Организация защищает страну от паранормальных явлений и событий, а также полумифических созданий. Девушка быстро понимает, что не может доверять никому в своем окружении, ведь кто-то из агенства предал её и стер память...

Качество: WEB-DL 720p
Формат: MKV

Видео: 1280x720 at 23.976 fps, MPEG-4 AVC, ~3260 kbps avg
Аудио#1: 48.0 kHz, AC3 Dolby Digital, 3/2 (L,C,R,l,r) + LFE ch, ~384 kbps | RUS / MVO
Аудио#2: 48.0 kHz, Enhanced Audio Coding 3, 3/2 (L,C,R,l,r) + LFE ch, ~640 kbps | ENG
скриншот  скриншот  скриншот  

Общее
Уникальный идентификатор : 73822073481543997191561352864845149640 (0x37899D3B641E2F17940C8B0B667A35C8)
Полное имя : D:\The.Rook.S01.720p.TVShows\The.Rook.S01E01.720p.TVShows.mkv
Формат : Matroska
Версия формата : Version 4 / Version 2
Размер файла : 1,52 Гбайт
Продолжительность : 50 м. 46 с.
Общий поток : 4291 Кбит/сек
Дата кодирования : UTC 2019-07-11 14:09:57
Программа кодирования : mkvmerge v33.1.0 ('Primrose') 64-bit
Библиотека кодирования : libebml v1.3.7 + libmatroska v1.5.0

Видео
Идентификатор : 1
Формат : AVC
Формат/Информация : Advanced Video Codec
Профиль формата : High@L3.1
Параметр CABAC формата : Да
Параметр RefFrames формата : 4 кадра
Идентификатор кодека : V_MPEG4/ISO/AVC
Продолжительность : 50 м. 46 с.
Вид битрейта : Постоянный
Битрейт : 3260 Кбит/сек
Номинальный битрейт : 6000 Кбит/сек
Ширина : 1280 пикселей
Высота : 720 пикселей
Соотношение сторон : 16:9
Режим частоты кадров : Постоянный
Частота кадров : 23,976 (24000/1001) кадра/сек
Цветовое пространство : YUV
Субдискретизация насыщенности : 4:2:0
Битовая глубина : 8 бит
Тип развёртки : Прогрессивная
Бит/(Пиксели*Кадры) : 0.144
Размер потока : 1,13 Гбайт (74%)
Default : Да
Forced : Нет
Цветовой диапазон : Limited
Основные цвета : BT.709
Характеристики трансфера : BT.709
Коэффициенты матрицы : BT.709

Аудио #1
Идентификатор : 2
Формат : AC-3
Формат/Информация : Audio Coding 3
Расширение режима : CM (complete main)
Параметр Endianness формата : Big
Идентификатор кодека : A_AC3
Продолжительность : 50 м. 46 с.
Вид битрейта : Постоянный
Битрейт : 384 Кбит/сек
Каналы : 6 каналов
Расположение каналов : Front: L C R, Side: L R, LFE
Частота : 48,0 КГц
Частота кадров : 31,250 кадров/сек (1536 spf)
Метод сжатия : С потерями
Размер потока : 139 Мбайт (9%)
Заголовок : TVShows
Язык : Russian
Default : Да
Forced : Да

Аудио #2
Идентификатор : 3
Формат : E-AC-3
Формат/Информация : Audio Coding 3
Параметр Endianness формата : Big
Идентификатор кодека : A_EAC3
Продолжительность : 50 м. 46 с.
Вид битрейта : Постоянный
Битрейт : 640 Кбит/сек
Каналы : 6 каналов
Расположение каналов : Front: L C R, Side: L R, LFE
Частота : 48,0 КГц
Частота кадров : 187,500 кадров/сек (256 spf)
Метод сжатия : С потерями
Размер потока : 232 Мбайт (15%)
Заголовок : Original
Язык : English
Default : Нет
Forced : Нет

Текст
Идентификатор : 4
Формат : UTF-8
Идентификатор кодека : S_TEXT/UTF8
Идентификатор кодека/Информация : UTF-8 Plain Text
Заголовок : English
Язык : English
Default : Нет
Forced : Нет

Внимание! Раздача ведётся путём добавления новых серий; при каждом добавлении создаётся новый торрент.
Чтобы начать докачку новой серии, пользователям необходимо сделать следующее:
1. Остановить скачивание.
2. Удалить старый торрент у себя из клиента (старые серии удалять не надо).
3. Скачать новый торрент и запустить его у себя в клиенте вместо старого, при этом указать клиенту путь в старую папку куда и должно происходить скачивание новых серий.
Ваш клиент при этом должен произвести хеширование (проверку) старой папки (если не производит сам - помогите ему сделать это), и будет докачивать только те серии которых у вас ещё нет. Старые серии при этом не удаляются, а продолжают раздаваться!
Eсли вы уже удалили старые серии, то предотвратить повторную закачку старых серий можно, отжав галочку в соответствующих местах при запуске нового торрента.
pb.wtf



Скачать Ладья через торрент http://c.radikal.ru/c32/1907/10/f806cc40cbd9.jpg Скачать фильм Ладья через торрент бесплантно в хорошем качестве Описание: В центре сюжета сериала, основанного на одноименном романе Дэниела О’Мэлли, находится Мифанви Томас — девушка из Лондона, которая ... 10 10 2
Торрент: Зарегистрирован [2019-08-15 09:45] · скачан: 4 раз
Статус: √ проверено
Размер: 14.12 GB
Как cкачать? Как скачать Ладья через торрент | qTorrent

% Раздел Тема Автор DL S | L
Зарубежные сериалы [ 4.87 GB ] Ладья / The Rook / Сезон: 1 / Серии: 1-8 из 8 [2019 WEB-DLRip] MVO [Jaskier] bober100 Скачать
2 | 0
Зарубежные сериалы [ 13.37 GB ] Ладья / The Rook / Сезон: 1 / Серии: 1-8 из 8 [2019 . WEB-DL 720p] MVO [Jaskier] bober100 Скачать
1 | 0
Зарубежные сериалы [ 25.52 GB ] Ладья / The Rook / Сезон: 1 / Серии: 1-8 из 8 [2019 WEB-DL 1080p] MVO [Jaskier] bober100 Скачать
1 | 0
Зарубежные сериалы [ 27.01 GB ] Ладья / The Rook / Сезон: 1 / Серии: 1-8 из 8 [2019 WEB-DL 1080p] MVO [Lostfilm] bober100 Скачать
1 | 0
Зарубежные сериалы [ 16.74 GB ] Ладья / The Rook / Сезон: 1 / Серии: 1-8 из 8 [2019 WEB-DL 720p] 2xMVO [Novamedia Lostfilm] bober100 Скачать
1 | 0
Зарубежные сериалы [ 25.7 GB ] Ладья / The Rook / Сезон: 1 / Серии: 1-8 из 8 [2019 WEB-DL 1080p] MVO [HDRezka Studio] bober100 Скачать
1 | 0
Зарубежные сериалы [ 5.48 GB ] Ладья / The Rook / Сезон: 1 / Серии: 1-8 из 8 [2019 WEBRip] MVO [HDRezka Studio] bober100 Скачать
1 | 0

28-11-2019 20:33  

Отключить всю рекламу на сайте

    Дорогой пользователь! Огромная просьба, поблагодарите релизера, оцените раздачу и оставьте свои комментарий, если Вы скачали Ладья через торрент бесплатно! Внесите свою лепту в развитие PiratBit!
    Комментировать посты могут только пользователи прошедшие не сложную регистрацию
    Показать сообщения:    

    Ладья через торрент
    Скачать бесплатно Ладья
    Ладья скачать торрент
    Ладья смотреть онлайн
    Cкачать фильм Ладья бесплатно
    Ладья скачать торрент в хорошем качестве
    Ладья смотреть онлайн бесплатно в хорошем качестве


    Вы не можете начинать темы
    Вы не можете отвечать на сообщения
    Вы не можете редактировать свои сообщения
    Вы не можете удалять свои сообщения
    Вы не можете голосовать в опросах
    Вы не можете прикреплять файлы к сообщениям
    Вы можете скачивать файлы