Ссылка на приватное зеркало нашего сайта всего за 1$. Внимание количество ограничено!!!

2 сезон

iTunes

1 сезон

1

2 сезон

2 сезон

iTunes

1 сезон

RePack

30

Новинка

ВАЖНО

ИГРА 18+

pack

RePack

MK11
pack

Забери бонус

RePack

jed

!!Акция!!

Alien_Rage

RePack

fifa19

RePack

Assassins Creed: Odyssey

RePack

NEED FOR SPEED™ PAYBACK

4 сезон

9 сезон

Бесстыжие 9 сезон

Все сериалы

все сериалы на PB.wtf

RePack

FAR CRY 5
  

Жеребьёвка смерти / Dead Draw (Брайан Клемесруд / Brian Klemesrud) [2016, триллер, криминал, WEB-DL 1080p] [MVO] (SDI Media) pb.wtf

Жеребьёвка смерти через торрент pb.wtf

Размер: 4.19 GB | Добавлен: 1 год 4 мес. назад | Торрент скачан:28 раз
Скачать  

25-07-2019 10:32 Жеребьёвка смерти Скачать торрент  

Жеребьёвка смерти / Dead Draw

Год выпуска: 2016
Страна: США
Жанр: триллер, криминал
Продолжительность: 01:32:54
Перевод: Профессиональный (многоголосый закадровый) - SDI Media
Субтитры: английские

Режиссер: Брайан Клемесруд / Brian Klemesrud

В ролях: Майкл Эклунд, Битси Таллок, Джил Беллоуз, Бриттани Шоу, Слэйн, Джим Догерти, Энди Аренс, Фауст Чечо, Аарон Криппен, Джош Одор

Описание: Кроме грабителей 25 миллионов, кто-то еще узнает о деньгах и самолете в Мексику, и этот кто-то убивает пилота, из-за чего четыре друга-грабителя не могут улететь с деньгами. Друзья начинают подозревать друг друга, ищут стукача и превращаются во врагов. Найдут ли они предателя и смогут ли пережить эту ночь?
rating
Sample

Тип релиза: WEB-DL 1080p - AMZN
Контейнер: MKV

Видео: MPEG4 AVC Video, H264, 2.35:1, 1920x816, 23.976 fps, 5493 Kbps
Аудио 1: Russian (AC3, 2 ch, 192 kbps, 16 bits, 48.0 KHz) - MVO
Аудио 2: English (E-AC3, 6 ch, 640 kbps, 16 bits, 48.0 KHz) - оригинал
Формат субтитров: softsub (SRT)
General
Unique ID : 240550582337229633040302762988064812523 (0xB4F85B6224D120A2A4989572F0FD2DEB)
Complete name : H:\Dead.Draw.2016.AMZN.WEB-DL.1080p.mkv
Format : Matroska
Format version : Version 4 / Version 2
File size : 4.19 GiB
Duration : 1 h 32 min
Overall bit rate mode : Variable
Overall bit rate : 6 454 kb/s
Encoded date : UTC 2019-07-24 07:54:33
Writing application : mkvmerge v6.1.0 ('Old Devil') built on Mar 2 2013 14:32:37
Writing library : libebml v1.3.0 + libmatroska v1.4.0

Video
ID : 1
Format : AVC
Format/Info : Advanced Video Codec
Format profile : High@L4
Format settings : CABAC / 4 Ref Frames
Format settings, CABAC : Yes
Format settings, ReFrames : 4 frames
Codec ID : V_MPEG4/ISO/AVC
Duration : 1 h 32 min
Bit rate mode : Variable
Bit rate : 5 493 kb/s
Maximum bit rate : 15.0 Mb/s
Width : 1 920 pixels
Height : 816 pixels
Display aspect ratio : 2.35:1
Frame rate mode : Constant
Frame rate : 23.976 (24000/1001) FPS
Color space : YUV
Chroma subsampling : 4:2:0
Bit depth : 8 bits
Scan type : Progressive
Bits/(Pixel*Frame) : 0.146
Stream size : 3.56 GiB (85%)
Language : English
Default : Yes
Forced : No
Color range : Limited
Color primaries : BT.709
Transfer characteristics : BT.709
Matrix coefficients : BT.709

Audio #1
ID : 2
Format : AC-3
Format/Info : Audio Coding 3
Codec ID : A_AC3
Duration : 1 h 32 min
Bit rate mode : Constant
Bit rate : 192 kb/s
Channel(s) : 2 channels
Channel positions : Front: L R
Sampling rate : 48.0 kHz
Frame rate : 31.250 FPS (1536 SPF)
Bit depth : 16 bits
Compression mode : Lossy
Stream size : 128 MiB (3%)
Language : Russian
Service kind : Complete Main
Default : Yes
Forced : No

Audio #2
ID : 3
Format : E-AC-3
Format/Info : Enhanced Audio Coding 3
Codec ID : A_EAC3
Duration : 1 h 32 min
Bit rate mode : Constant
Bit rate : 640 kb/s
Channel(s) : 6 channels
Channel positions : Front: L C R, Side: L R, LFE
Sampling rate : 48.0 kHz
Frame rate : 187.500 FPS (256 SPF)
Compression mode : Lossy
Stream size : 425 MiB (10%)
Language : English
Service kind : Complete Main
Default : No
Forced : No

Text
ID : 4
Format : UTF-8
Codec ID : S_TEXT/UTF8
Codec ID/Info : UTF-8 Plain Text
Language : English
Default : No
Forced : No
скриншот  скриншот  скриншот  
pb.wtf



Скачать Жеребьёвка смерти через торрент https://i87.fastpic.ru/big/2019/0725/04/518e9dc0db01b2215fc1bdfe831f2b04.jpg Скачать фильм Жеребьёвка смерти через торрент бесплантно в хорошем качестве Описание: Кроме грабителей 25 миллионов, кто-то еще узнает о деньгах и самолете в Мексику, и этот кто-то убивает пилота, из-за чего четыре ... 10 10 1
Торрент: Зарегистрирован [2019-07-25 10:32] · скачан: 28 раз
Статус: √ проверено
Размер: 4.19 GB
Как cкачать? Как скачать Жеребьёвка смерти через торрент | qTorrent

% Раздел Тема Автор DL S | L
T Фильмы 2016 [DVDrip, WEB-DLRip, HDrip] (DUB, MVO) [ 1.45 GB ] Жеребьёвка смерти / Dead Draw [2016 WEB-DLRip] [MVO] killermax2013 Скачать
1 | 0
T Фильмы (мультфильмы) cо спонсором показа (Новинки AVI/MKV) [ 3.12 GB ] Жеребьёвка смерти / Dead Draw [2016 WEB-DL 720p] MVO ["Синема УС"] bober100 Скачать
1 | 0

28-11-2019 20:33  

Отключить всю рекламу на сайте

    Дорогой пользователь! Огромная просьба, поблагодарите релизера, оцените раздачу и оставьте свои комментарий, если Вы скачали Жеребьёвка смерти через торрент бесплатно! Внесите свою лепту в развитие PiratBit!
    Комментировать посты могут только пользователи прошедшие не сложную регистрацию
    Показать сообщения:    

    Жеребьёвка смерти через торрент
    Скачать бесплатно Жеребьёвка смерти
    Жеребьёвка смерти скачать торрент
    Жеребьёвка смерти смотреть онлайн
    Cкачать фильм Жеребьёвка смерти бесплатно
    Жеребьёвка смерти скачать торрент в хорошем качестве
    Жеребьёвка смерти смотреть онлайн бесплатно в хорошем качестве


    Вы не можете начинать темы
    Вы не можете отвечать на сообщения
    Вы не можете редактировать свои сообщения
    Вы не можете удалять свои сообщения
    Вы не можете голосовать в опросах
    Вы не можете прикреплять файлы к сообщениям
    Вы можете скачивать файлы