Ссылка на приватное зеркало нашего сайта всего за 1$. Внимание количество ограничено!!!

2 сезон

iTunes

1 сезон

1

2 сезон

2 сезон

iTunes

1 сезон

RePack

30

Ultimate

ВАЖНО

ИГРА 18+

pack

RePack

MK11
pack

Забери бонус

RePack

jed

!!Акция!!

Alien_Rage

RePack

fifa19

RePack

Assassins Creed: Odyssey

RePack

NEED FOR SPEED™ PAYBACK

4 сезон

9 сезон

Бесстыжие 9 сезон

Все сериалы

все сериалы на PB.wtf

RePack

FAR CRY 5
  

Иная Жизнь / Другая жизнь / Another Life / Сезон: 1 / Серии: 1-10 из 10 (Шери Фоксон, Омар Мадха, Аллан Аркуш) [2019, Фантастика, драма, WEB-DL 1080p] MVO [Пифагор] pb.wtf

Иная Жизнь через торрент pb.wtf

Размер: 16.12 GB | Добавлен: 1 год 4 мес. назад | Торрент скачан:103 раза
Скачать  

25-07-2019 11:15 Иная Жизнь Скачать торрент  

Иная Жизнь / Другая жизнь / Another Life
Год выпуска: 2019
Страна: США
Жанр: Фантастика, драма
Продолжительность: ~ 00:45:00 серия
Перевод: Профессиональный (многоголосый) | Пифагор по заказу Netflix
Субтитры: русские (форс., полные), английские (SDH)

Режиссер: Шери Фоксон, Омар Мадха, Аллан Аркуш

rating


В ролях: Кэти Сакхофф, Джейк Эйбел, Сэмюэл Андерсон, Сэльма Блэр, Джессика Камачо, Джастин Чатвин, Александр Элинг, Тайлер Хэклин, Грег Ованессян, Блю Хант и др.

Описание: Астронавт Нико Брекинридж вместе с командой исследовательского судна должна выяснить происхождение таинственного инопланетного артефакта. В своих поисках они столкнутся с настоящим космическим ужасом.

Качество: WEB-DL 1080p
Формат: MKV

Видео: MPEG-4 AVC, 1920x1080, ~3478 kbps, 23,976 fps
Аудио#1: русский, E-AC3, 5.1 ch, 48 kHz, 640 kbps
Аудио#2: английский, E-AC3, 5.1 ch, 48 kHz, 768 kbps
скриншот  скриншот  скриншот  скриншот  

скриншот  скриншот  скриншот  скриншот  

Общее
Уникальный идентификатор : 230693119645794322049568925706973877443 (0xAD8DE0F312990CD3B9066AFF3D2814C3)
Полное имя : E:Torrent2AnotherLifeS01AnotherLifeS01x01.mkv
Формат : Matroska
Версия формата : Version 4 / Version 2
Размер файла : 2,09 Гбайт
Продолжительность : 1 ч. 1 м.
Общий поток : 4889 Кбит/сек
Дата кодирования : UTC 2019-07-25 09:31:17
Программа кодирования : mkvmerge v9.5.0 ('Quiet Fire') 64bit
Библиотека кодирования : libebml v1.3.4 + libmatroska v1.4.5

Видео
Идентификатор : 1
Формат : AVC
Формат/Информация : Advanced Video Codec
Профиль формата : High@L4
Настройки формата : CABAC / 3 Ref Frames
Параметр CABAC формата : Да
Параметр RefFrames формата : 3 кадра
Идентификатор кодека : V_MPEG4/ISO/AVC
Продолжительность : 1 ч. 1 м.
Битрейт : 3478 Кбит/сек
Ширина : 1920 пикселей
Высота : 1080 пикселей
Соотношение сторон : 16:9
Режим частоты кадров : Постоянный
Частота кадров : 23,976 (24000/1001) кадра/сек
Цветовое пространство : YUV
Субдискретизация насыщенности : 4:2:0
Битовая глубина : 8 бит
Тип развёртки : Прогрессивная
Бит/(Пиксели*Кадры) : 0.070
Размер потока : 1,49 Гбайт (71%)
Язык : English
Default : Да
Forced : Нет

Аудио #1
Идентификатор : 2
Формат : E-AC-3
Формат/Информация : Enhanced Audio Coding 3
Параметр Endianness формата : Big
Идентификатор кодека : A_EAC3
Продолжительность : 1 ч. 1 м.
Вид битрейта : Постоянный
Битрейт : 640 Кбит/сек
Каналы : 6 каналов
Расположение каналов : Front: L C R, Side: L R, LFE
Частота : 48,0 КГц
Частота кадров : 187,500 кадров/сек (256 SPF)
Метод сжатия : С потерями
Размер потока : 280 Мбайт (13%)
Заголовок : rus
Язык : Russian
Default : Да
Forced : Нет

Аудио #2
Идентификатор : 3
Формат : E-AC-3
Формат/Информация : Enhanced Audio Coding 3
Профиль формата : E-AC-3+Atmos / E-AC-3
Параметр Endianness формата : Big
Идентификатор кодека : A_EAC3
Продолжительность : 1 ч. 1 м.
Вид битрейта : Постоянный
Битрейт : 768 Кбит/сек
Каналы : 15 objects / 6 каналов
Расположение каналов : 15 objects / Front: L C R, Side: L R, LFE
Частота : 48,0 КГц
Частота кадров : 187,500 кадров/сек (256 SPF)
Метод сжатия : С потерями
Размер потока : 336 Мбайт (16%)
Заголовок : eng
Язык : English
Default : Нет
Forced : Нет

Текст #1
Идентификатор : 4
Формат : UTF-8
Идентификатор кодека : S_TEXT/UTF8
Идентификатор кодека/Информация : UTF-8 Plain Text
Продолжительность : 41 м. 6 с.
Битрейт : 2 бит/сек
ElementCount : 11
Размер потока : 618 байт (0%)
Заголовок : rusForced
Язык : Russian
Default : Да
Forced : Да

Текст #2
Идентификатор : 5
Формат : UTF-8
Идентификатор кодека : S_TEXT/UTF8
Идентификатор кодека/Информация : UTF-8 Plain Text
Продолжительность : 59 м. 55 с.
Битрейт : 80 бит/сек
ElementCount : 763
Размер потока : 35,2 Кбайт (0%)
Заголовок : rusFull
Язык : Russian
Default : Нет
Forced : Нет

Текст #3
Идентификатор : 6
Формат : UTF-8
Идентификатор кодека : S_TEXT/UTF8
Идентификатор кодека/Информация : UTF-8 Plain Text
Продолжительность : 57 м. 58 с.
Битрейт : 67 бит/сек
ElementCount : 981
Размер потока : 28,5 Кбайт (0%)
Заголовок : engSDH
Язык : English
Default : Нет
Forced : Нет

pb.wtf



Скачать Иная Жизнь через торрент http://lostpix.com/thumbs/2019-07/25/jmvxn4w7w2kr59kdhtunifw4o.png Скачать фильм Иная Жизнь через торрент бесплантно в хорошем качестве Описание: Астронавт Нико Брекинридж вместе с командой исследовательского судна должна выяснить происхождение таинственного инопланетного ... 10 10 3
Торрент: Зарегистрирован [2019-07-25 11:15] · скачан: 103 раз
Статус: √ проверено
Размер: 16.12 GB
Как cкачать? Как скачать Иная Жизнь через торрент | qTorrent

% Раздел Тема Автор DL S | L
Зарубежные сериалы [ 7.41 GB ] Иная жизнь / Другая жизнь / Another Life / Сезон: 1 / Серии: 1-10 из 10 [2019 WEBRip] MVO [TVShows] bober100 Скачать
1 | 0
Зарубежные сериалы [ 21.32 GB ] Иная Жизнь / Другая жизнь / Another Life / Сезон: 1 / Серии: 1-10 из 10 [2019 WEB-DL 1080p] MVO [Lostfilm] bober100 Скачать
1 | 0
Зарубежные сериалы [ 60.22 GB ] Иная Жизнь / Другая жизнь / Another Life / Сезон: 1 / Серии: 1-10 из 10 [2019 UHD WEB-DL 2160p] MVO [Пифагор] bober100 Скачать
1 | 0
Зарубежные сериалы [ 56.61 GB ] Иная Жизнь / Другая жизнь / Another Life / Сезон: 1 / Серии: 10 из 10 [2019 WEB-DL 1080p] MVO [TVShows] bober100 Скачать
1 | 0
Зарубежные сериалы [ 10.66 GB ] Иная Жизнь / Другая жизнь / Another Life / Сезон: 1 / Серии: 1-10 из 10 [2019 WEB-DL 720p] MVO [Пифагор] bober100 Скачать
3 | 0
Зарубежные сериалы [ 9.85 GB ] Иная Жизнь / Другая жизнь / Another Life / Сезон: 1 / Серии: 1-10 из 10 [2019 WEBRip 720p] MVO [Lostfilm] bober100 Скачать
1 | 0
Зарубежные сериалы [ 6.31 GB ] Иная Жизнь / Другая жизнь / Another Life / Сезон: 1 / Серии: 1-10 из 10 [2019 . WEB-DLRip] MVO [Пифагор] bober100 Скачать
1 | 0

28-11-2019 20:33  

Отключить всю рекламу на сайте

    Дорогой пользователь! Огромная просьба, поблагодарите релизера, оцените раздачу и оставьте свои комментарий, если Вы скачали Иная Жизнь через торрент бесплатно! Внесите свою лепту в развитие PiratBit!
    Комментировать посты могут только пользователи прошедшие не сложную регистрацию
    Показать сообщения:    

    Иная Жизнь через торрент
    Скачать бесплатно Иная Жизнь
    Иная Жизнь скачать торрент
    Иная Жизнь смотреть онлайн
    Cкачать фильм Иная Жизнь бесплатно
    Иная Жизнь скачать торрент в хорошем качестве
    Иная Жизнь смотреть онлайн бесплатно в хорошем качестве


    Вы не можете начинать темы
    Вы не можете отвечать на сообщения
    Вы не можете редактировать свои сообщения
    Вы не можете удалять свои сообщения
    Вы не можете голосовать в опросах
    Вы не можете прикреплять файлы к сообщениям
    Вы можете скачивать файлы