Всегда рабочее зеркало без VPN и Proxy просто перед .vidak.icu напиши любое слово или цифру, Пример http://xedf.vidak.icu

MVO

2 сезон

1 сезон

1

1 сезон

iTunes

2 сезон

13

1 сезон

Deluxe

pack

Рекомендуем

Пиратка

30

ВАЖНО

RePack

MK11

RePack

jed

RePack

fifa19

RePack

RDR2

RePack

NEED FOR SPEED™ PAYBACK

Кинопоиск HD

6 сезон

 Острые козырьки 6 сезон

Все сериалы

все сериалы на PB.wtf

RePack

FAR CRY 5

Anonymous, нам критически не хватает 5601 руб. на оплату серверов и переферии за Апрель, помоги нам пожалуйста, вся надежда только на тебя. В благодарность мы отключим тебе всю рекламу на сайте!

×
  
Magnet ссылка

Дорз / The Doors (Оливер Стоун) [1991, драма, музыка, биография, UHD BDRip 2160p] MVO + 2xDVO + 2xAVO pb.wtf

Дорз через торрент pb.wtf

Размер: 32.83 GB | Добавлен: 2 года 10 мес. назад | Торрент скачан:24 раза
Смотреть онлайн Дорз | Скачать    Ребята, помогите собрать деньги на оплату серверов!!!

25-07-2019 11:32 Дорз Скачать торрент  

Дорз / The Doors««The Ultimate Story of Sex, Drugs & Rock 'N' Roll»»

Год выпуска: 1991
Страна: США
Жанр: драма, музыка, биография
Продолжительность: 02:20:39
Перевод: Профессиональный многоголосый, профессиональный двухголосый, авторский
Субтитры: Русские, английские
Режиссер: Оливер Стоун
В ролях:

Вэл Килмер (Jim Morrison), Мег Райан (Pamela Courson), Кайл МакЛоклен (Ray Manzarek), Фрэнк Уэйли (Robby Krieger), Кевин Диллон (John Densmore), Майкл Уинкотт (Paul Rothchild), Майкл Мэдсен (Tom Baker), Джош Эванс (Bill Siddons), Деннис Бёркли (Dog), Билли Айдол (Cat), Кэтлин Куинлен (Patricia Kennealy), Джон Денсмор (Engineer - Last Session)
Описание:
Классический фильм об известном американском музыканте и секс-символе Джиме Моррисоне, его легендарной группе «Дорз» и славных шестидесятых. Это были годы небывалого стремления к свободе и ошеломляющей популярности рок-н-ролла.
Рейтинг:

MPAA: R - Лицам до 17 лет обязательно присутствие взрослого
Качество: UHD BDRip 2160p
Формат: MKV
Видео: HEVC HDR, 28.5 Mбит/с, 3840x1634, 24.000 Кадр/с
Аудио #1: 48 kHz, AC3, 6ch, ~448.00 kbps avg /RUS/ Профессиональный двухголосый (D2Lab)
Аудио #2: 48 kHz, AC3, 6ch, ~384.00 kbps avg /RUS/ Профессиональный многоголосый (CP-Digital)
Аудио #3: 48 kHz, AC3, 6ch, ~448.00 kbps avg /RUS/ Профессиональный двухголосый (816 DVD TEAM)
Аудио #4: 48 kHz, DTS, 6ch, ~1510.00 kbps avg /RUS/ Одноголосый закадровый, (М. Чадов)
Аудио #5: 48 kHz, DTS, 6ch, ~1510.00 kbps avg /RUS/ Одноголосый закадровый, (Гаврилов)
Аудио #6: 48 kHz, AC3, 6ch, ~640.00 kbps avg /ENG/ Оригинал
Навигация по главам: Есть

Complete name : E:\Movies\The.Doors.1991.2160p.UHD.BluRay.X265-SHD13.mkv
Format : Matroska
Format version : Version 4
File size : 32.8 GiB
Duration : 2 h 20 min
Overall bit rate : 33.5 Mb/s
Movie name : The.Doors.1991.2160p.UHD.BluRay.X265-SHD13
Encoded date : UTC 2019-07-25 10:39:50
Writing application : mkvmerge v34.0.0 ('Sight and Seen') 64-bit
Writing library : libebml v1.3.7 + libmatroska v1.5.0
Attachments : poster.png

Video
ID : 1
Format : HEVC
Format/Info : High Efficiency Video Coding
Format profile : Main 10@L5.1@High
HDR format : SMPTE ST 2086, HDR10 compatible
Codec ID : V_MPEGH/ISO/HEVC
Duration : 2 h 20 min
Bit rate : 28.5 Mb/s
Width : 3 840 pixels
Height : 1 634 pixels
Display aspect ratio : 2.35:1
Frame rate mode : Constant
Frame rate : 24.000 FPS
Color space : YUV
Chroma subsampling : 4:2:0 (Type 2)
Bit depth : 10 bits
Bits/(Pixel*Frame) : 0.189
Stream size : 28.0 GiB (85%)
Title : The.Doors.1991.2160p.UHD.BluRay.X265-SHD13
Writing library : x265 3.1+5-9c5c9cef2a86:[Windows][MSVC 1900][64 bit] 10bit
Encoding settings : cpuid=1176575 / frame-threads=5 / numa-pools=36 / wpp / no-pmode / no-pme / no-psnr / no-ssim / log-level=2 / input-csp=1 / input-res=3840x1634 / interlace=0 / total-frames=202310 / level-idc=51 / high-tier=1 / uhd-bd=0 / ref=4 / no-allow-non-conformance / repeat-headers / annexb / aud / hrd / info / hash=0 / no-temporal-layers / no-open-gop / min-keyint=24 / keyint=240 / gop-lookahead=0 / bframes=4 / b-adapt=2 / b-pyramid / bframe-bias=0 / rc-lookahead=25 / lookahead-slices=4 / scenecut=40 / radl=0 / no-splice / no-intra-refresh / ctu=64 / min-cu-size=8 / rect / no-amp / max-tu-size=32 / tu-inter-depth=1 / tu-intra-depth=1 / limit-tu=0 / rdoq-level=2 / dynamic-rd=0.00 / no-ssim-rd / signhide / no-tskip / nr-intra=0 / nr-inter=0 / no-constrained-intra / no-strong-intra-smoothing / max-merge=3 / limit-refs=3 / limit-modes / me=3 / subme=3 / merange=57 / temporal-mvp / weightp / no-weightb / no-analyze-src-pics / deblock=-3:-3 / no-sao / no-sao-non-deblock / rd=4 / no-early-skip / rskip / no-fast-intra / no-tskip-fast / no-cu-lossless / no-b-intra / no-splitrd-skip / rdpenalty=0 / psy-rd=2.00 / psy-rdoq=1.00 / no-rd-refine / no-lossless / cbqpoffs=0 / crqpoffs=0 / rc=crf / crf=19.3 / qcomp=0.60 / qpstep=4 / stats-write=0 / stats-read=0 / vbv-maxrate=160000 / vbv-bufsize=160000 / vbv-init=0.9 / crf-max=0.0 / crf-min=0.0 / ipratio=1.40 / pbratio=1.30 / aq-mode=1 / aq-strength=1.00 / cutree / zone-count=0 / no-strict-cbr / qg-size=32 / no-rc-grain / qpmax=69 / qpmin=0 / no-const-vbv / sar=1 / overscan=0 / videoformat=5 / range=0 / colorprim=9 / transfer=16 / colormatrix=9 / chromaloc=1 / chromaloc-top=2 / chromaloc-bottom=2 / display-window=0 / master-display=G(13250,34500)B(7500,3000)R(34000,16000)WP(15635,16450)L(10000000,1)cll=0,0 / min-luma=0 / max-luma=1023 / log2-max-poc-lsb=8 / vui-timing-info / vui-hrd-info / slices=1 / no-opt-qp-pps / no-opt-ref-list-length-pps / no-multi-pass-opt-rps / scenecut-bias=0.05 / no-opt-cu-delta-qp / no-aq-motion / hdr / hdr-opt / no-dhdr10-opt / no-idr-recovery-sei / analysis-reuse-level=5 / scale-factor=0 / refine-intra=0 / refine-inter=0 / refine-mv=0 / refine-ctu-distortion=0 / no-limit-sao / ctu-info=0 / no-lowpass-dct / refine-analysis-type=0 / copy-pic=1 / max-ausize-factor=1.0 / no-dynamic-refine / no-single-sei / no-hevc-aq / no-svt / no-field / qp-adaptation-range=1.00
Language : Russian
Default : Yes
Forced : No
Color range : Limited
Color primaries : BT.2020
Transfer characteristics : PQ
Matrix coefficients : BT.2020 non-constant
Mastering display color pri : Display P3
Mastering display luminance : min: 0.0001 cd/m2, max: 1000 cd/m2

Audio #1
ID : 2
Format : AC-3
Format/Info : Audio Coding 3
Commercial name : Dolby Digital
Codec ID : A_AC3
Duration : 2 h 20 min
Bit rate mode : Constant
Bit rate : 448 kb/s
Channel(s) : 6 channels
Channel layout : L R C LFE Ls Rs
Sampling rate : 48.0 kHz
Frame rate : 31.250 FPS (1536 SPF)
Bit depth : 16 bits
Compression mode : Lossy
Stream size : 449 MiB (1%)
Title : DVO, D2Lab
Language : Russian
Service kind : Complete Main
Default : Yes
Forced : No

Audio #2
ID : 3
Format : AC-3
Format/Info : Audio Coding 3
Commercial name : Dolby Digital
Codec ID : A_AC3
Duration : 2 h 20 min
Bit rate mode : Constant
Bit rate : 384 kb/s
Channel(s) : 6 channels
Channel layout : L R C LFE Ls Rs
Sampling rate : 48.0 kHz
Frame rate : 31.250 FPS (1536 SPF)
Bit depth : 16 bits
Compression mode : Lossy
Stream size : 385 MiB (1%)
Title : MVO, CP Digital
Language : Russian
Service kind : Complete Main
Default : No
Forced : No

Audio #3
ID : 4
Format : AC-3
Format/Info : Audio Coding 3
Commercial name : Dolby Digital
Codec ID : A_AC3
Duration : 2 h 20 min
Bit rate mode : Constant
Bit rate : 448 kb/s
Channel(s) : 6 channels
Channel layout : L R C LFE Ls Rs
Sampling rate : 48.0 kHz
Frame rate : 31.250 FPS (1536 SPF)
Bit depth : 16 bits
Compression mode : Lossy
Stream size : 449 MiB (1%)
Title : DVO, DVD TEAM
Language : Russian
Service kind : Complete Main
Default : No
Forced : No

Audio #4
ID : 5
Format : DTS
Format/Info : Digital Theater Systems
Codec ID : A_DTS
Duration : 2 h 20 min
Bit rate mode : Constant
Bit rate : 1 510 kb/s
Channel(s) : 6 channels
Channel layout : C L R Ls Rs LFE
Sampling rate : 48.0 kHz
Frame rate : 93.750 FPS (512 SPF)
Bit depth : 24 bits
Compression mode : Lossy
Stream size : 1.48 GiB (5%)
Title : AVO, Чадов
Language : Russian
Default : No
Forced : No

Audio #5
ID : 6
Format : DTS
Format/Info : Digital Theater Systems
Codec ID : A_DTS
Duration : 2 h 20 min
Bit rate mode : Constant
Bit rate : 1 510 kb/s
Channel(s) : 6 channels
Channel layout : C L R Ls Rs LFE
Sampling rate : 48.0 kHz
Frame rate : 93.750 FPS (512 SPF)
Bit depth : 24 bits
Compression mode : Lossy
Stream size : 1.48 GiB (5%)
Title : AVO, Гаврилов
Language : Russian
Default : No
Forced : No

Audio #6
ID : 7
Format : AC-3
Format/Info : Audio Coding 3
Commercial name : Dolby Digital
Codec ID : A_AC3
Duration : 2 h 20 min
Bit rate mode : Constant
Bit rate : 640 kb/s
Channel(s) : 6 channels
Channel layout : L R C LFE Ls Rs
Sampling rate : 48.0 kHz
Frame rate : 31.250 FPS (1536 SPF)
Bit depth : 16 bits
Compression mode : Lossy
Stream size : 643 MiB (2%)
Language : English
Service kind : Complete Main
Default : No
Forced : No

Text #1
ID : 8
Format : UTF-8
Codec ID : S_TEXT/UTF8
Codec ID/Info : UTF-8 Plain Text
Duration : 2 h 16 min
Bit rate : 20 b/s
Count of elements : 506
Stream size : 20.5 KiB (0%)
Title : Переводман (форc)
Language : Russian
Default : Yes
Forced : No

Text #2
ID : 9
Format : UTF-8
Codec ID : S_TEXT/UTF8
Codec ID/Info : UTF-8 Plain Text
Duration : 2 h 19 min
Bit rate : 108 b/s
Count of elements : 2055
Stream size : 111 KiB (0%)
Title : Переводман (полные)
Language : Russian
Default : No
Forced : No

Text #3
ID : 10
Format : UTF-8
Codec ID : S_TEXT/UTF8
Codec ID/Info : UTF-8 Plain Text
Duration : 2 h 10 min
Bit rate : 85 b/s
Count of elements : 1438
Stream size : 82.0 KiB (0%)
Title : D2Lab
Language : Russian
Default : No
Forced : No

Text #4
ID : 11
Format : UTF-8
Codec ID : S_TEXT/UTF8
Codec ID/Info : UTF-8 Plain Text
Duration : 2 h 12 min
Bit rate : 92 b/s
Count of elements : 1737
Stream size : 89.5 KiB (0%)
Title : DVD TEAM
Language : Russian
Default : No
Forced : No

Text #5
ID : 12
Format : UTF-8
Codec ID : S_TEXT/UTF8
Codec ID/Info : UTF-8 Plain Text
Duration : 2 h 10 min
Bit rate : 12 b/s
Count of elements : 290
Stream size : 12.2 KiB (0%)
Title : forced
Language : Russian
Default : No
Forced : No

Text #6
ID : 13
Format : UTF-8
Codec ID : S_TEXT/UTF8
Codec ID/Info : UTF-8 Plain Text
Duration : 2 h 12 min
Bit rate : 78 b/s
Count of elements : 1140
Stream size : 75.8 KiB (0%)
Title : CP Digital
Language : Russian
Default : No
Forced : No

Text #7
ID : 14
Format : UTF-8
Codec ID : S_TEXT/UTF8
Codec ID/Info : UTF-8 Plain Text
Duration : 2 h 13 min
Bit rate : 70 b/s
Count of elements : 1824
Stream size : 69.2 KiB (0%)
Title : full
Language : English
Default : No
Forced : No

Text #8
ID : 15
Format : UTF-8
Codec ID : S_TEXT/UTF8
Codec ID/Info : UTF-8 Plain Text
Duration : 2 h 14 min
Bit rate : 75 b/s
Count of elements : 1989
Stream size : 74.4 KiB (0%)
Title : SDH
Language : English
Default : No
Forced : No

Menu
00:00:00.000 : :Chapter 01
00:14:50.292 : :Chapter 02
00:22:26.250 : :Chapter 03
00:41:02.958 : :Chapter 04
00:50:10.000 : :Chapter 05
01:09:08.167 : :Chapter 06
01:19:59.167 : :Chapter 07
01:29:20.458 : :Chapter 08
01:36:38.417 : :Chapter 09
01:47:33.417 : :Chapter 10
01:57:45.333 : :Chapter 11
02:12:07.208 : :Chapter 12
pb.wtf



Скачать Дорз через торрент https://c.radikal.ru/c10/1907/d5/587ede8f5143.png Скачать, смотреть онлайн Дорз бесплантно в хорошем качестве Описание: Классический фильм об известном американском музыканте и секс-символе Джиме Моррисоне, его легендарной группе «Дорз» и славных ... 10 10 3
Торрент: Зарегистрирован [2019-07-25 11:32] · скачан: 24 раз
Статус: √ проверено
Размер: 32.83 GB
Как cкачать? Как скачать Дорз через торрент | UTorrent

% Раздел Тема Автор DL S | L
Ultra HD (UHD: 2K, 4K, 8K) — видео сверхвысокой чёткости [ 62.57 GB ] Дорз / The Doors [1991 музыка биография UHD BDRemux 2160p] MVO + 2xDVO + 2xAVO sheker187 Скачать
1 | 0

28-11-2019 20:33  

Отключить всю рекламу на сайте

15-04-2020 18:36 Дорз Скачать торрент  

Ребята, встаньте пжл на раздачу, немного осталось...
Спасибо!pb.wtf



    Дорогой пользователь! Огромная просьба, поблагодарите релизера, оцените раздачу и оставьте свои комментарий, если Вы скачали Дорз через торрент бесплатно!
    Комментировать посты могут только пользователи прошедшие не сложную регистрацию
    Показать сообщения:    

    Дорз через торрент
    Скачать бесплатно Дорз
    Дорз скачать торрент
    Дорз смотреть онлайн
    Cкачать фильм Дорз бесплатно
    Дорз скачать торрент в хорошем качестве
    Дорз смотреть онлайн бесплатно в хорошем качестве


    Вы не можете начинать темы
    Вы не можете отвечать на сообщения
    Вы не можете редактировать свои сообщения
    Вы не можете удалять свои сообщения
    Вы не можете голосовать в опросах
    Вы не можете прикреплять файлы к сообщениям
    Вы можете скачивать файлы