Всегда рабочее зеркало без VPN и Proxy просто перед .vidak.icu напиши любое слово или цифру, Пример http://jaos.vidak.icu

MVO

2 сезон

2 сезон

1

1 сезон

iTunes

2 сезон

13

1 сезон

Распродажа

pack

Рекомендуем

Пиратка

30

ВАЖНО

RePack

MK11

RePack

jed

RePack

fifa19

RePack

RDR2

RePack

NEED FOR SPEED™ PAYBACK

Кинопоиск HD

6 сезон

 Острые козырьки 6 сезон

Все сериалы

все сериалы на PB.wtf

RePack

FAR CRY 5

Anonymous, нам критически не хватает 5601 руб. на оплату серверов и переферии за Апрель, помоги нам пожалуйста, вся надежда только на тебя. В благодарность мы отключим тебе всю рекламу на сайте!

×
  
Magnet ссылка

Дэдпул 2 / Deadpool 2 (Дэвид Литч) [2018, фантастика, боевик, комедия, UHD BDRemux 2160p] [Расширенная версия] DUB [Лицензия] + 2xAVO pb.wtf

Дэдпул 2 через торрент pb.wtf

Размер: 60.72 GB | Добавлен: 2 года 9 мес. назад | Торрент скачан:89 раз
Смотреть онлайн Дэдпул 2 | Скачать    Ребята, помогите собрать деньги на оплату серверов!!!

25-07-2019 11:42 Дэдпул 2 Скачать торрент  

Дэдпул 2 / Deadpool 2«Беда не приходит одна»
Год выпуска: 2018
Страна: США
Жанр: фантастика, боевик, комедия, приключения
Продолжительность: 02:13:59
Перевод: Дублированный, авторский
Субтитры: русские (forced, Blu-Ray, Ruf, FOCS), английские (forced, full, SDH)
Режиссер: Дэвид Литч

В ролях:

Райан Рейнольдс (Wade Wilson / Deadpool / Voice of Juggernaut), Джош Бролин (Cable), Морена Баккарин (Vanessa), Джулиан Деннисон (Firefist), Зази Битц (Domino), ТиДжей Миллер (Weasel), Лесли Аггамс (Blind Al), Каран Сони (Dopinder), Брианна Хилдебранд (Negasonic Teenage Warhead), Джек Кеси (Black Tom), Эдди Марсан (Headmaster), Сиори Куцуна (Yukio)
Описание:
Единственный и неповторимый болтливый наемник - вернулся! Ещё более масштабный, ещё более разрушительный и даже ещё более голозадый, чем прежде! Когда в его жизнь врывается суперсолдат с убийственной миссией, Дэдпул вынужден задуматься о дружбе, семье и о том, что на самом деле значит быть героем, попутно надирая 50 оттенков задниц. Потому что иногда чтобы делать хорошие вещи, нужно использовать грязные приёмчики.
Рейтинг:

MPAA: R - Лицам до 17 лет обязательно присутствие взрослого
Качество: UHD BDRemux 2160p
Контейнер: MKV
Видео: MPEG-H HEVC Video / 48757 kbps / 3840x2160 / 23.976 fps / 16:9 / Main 10 Profile 5.1 High / 4:2:0 / 10 bits / HDR / BT.2020 /
Аудио 1: Russian DTS / 5.1 / 48 kHz / 768 kbps / 24-bit |Dub, Blu-Ray|
Аудио 2: Russian DTS-HD Master Audio / 7.1 / 48 kHz / 5062 kbps / 24-bit (DTS Core: 5.1 / 48 kHz / 1509 kbps / 24-bit) |М. Яроцкий|
Аудио 3: Russian DTS-HD Master Audio / 7.1 / 48 kHz / 5115 kbps / 24-bit (DTS Core: 5.1 / 48 kHz / 1509 kbps / 24-bit) |Е. Гаевский|
Аудио 4: English Dolby Atmos/TrueHD Audio / 7.1-Atmos / 48 kHz / 5101 kbps / 16-bit |original|
Аудио 5: English AC3 Core: 5.1 / 48 kHz / 640 kbps |original|
Навигация по главам: Есть

Дорожки №2,3 содержат ненормативную лексику
Общее
Уникальный идентификатор : 19189561702300320489552170556345719531 (0xE6FC6703E8CE64C35B219182C6E9AEB)
Полное имя : H:\UHD\Дэдпул 2.2018.UHD.BluRay.Remux.2160p.mkv
Формат : Matroska
Версия формата : Version 4
Размер файла : 60,7 Гбайт
Продолжительность : 2 ч. 14 м.
Режим общего битрейта : Переменный
Общий поток : 64,8 Мбит/сек
Дата кодирования : UTC 2018-12-23 15:03:38
Программа кодирования : mkvmerge v29.0.0 ('Like It Or Not') 64-bit
Библиотека кодирования : libebml v1.3.6 + libmatroska v1.4.9
Attachments : poster.jpg

Видео
Идентификатор : 1
Формат : HEVC
Формат/Информация : High Efficiency Video Coding
Коммерческое название : HDR10
Профиль формата : Main 10@L5.1@High
Идентификатор кодека : V_MPEGH/ISO/HEVC
Продолжительность : 2 ч. 13 м.
Битрейт : 48,8 Мбит/сек
Ширина : 3840 пикселей
Высота : 2160 пикселей
Соотношение сторон : 16:9
Режим частоты кадров : Постоянный
Частота кадров : 23,976 (24000/1001) кадра/сек
Цветовое пространство : YUV
Субдискретизация насыщенности : 4:2:0 (Type 2)
Битовая глубина : 10 бит
Бит/(Пиксели*Кадры) : 0.245
Размер потока : 45,6 Гбайт (75%)
Библиотека кодирования : ATEME Titan File 3.8.16 (4.8.16.0)
Default : Да
Forced : Нет
Цветовой диапазон : Limited
Основные цвета : BT.2020
Характеристики трансфера : PQ
Коэффициенты матрицы : BT.2020 non-constant
MasteringDisplay_ColorPrimaries : Display P3
MasteringDisplay_Luminance : min: 0.0050 cd/m2, max: 1000 cd/m2

Аудио #1
Идентификатор : 2
Формат : DTS
Формат/Информация : Digital Theater Systems
Идентификатор кодека : A_DTS
Продолжительность : 2 ч. 13 м.
Вид битрейта : Постоянный
Битрейт : 768 Кбит/сек
Каналы : 6 каналов
Channel layout : C L R Ls Rs LFE
Частота : 48,0 КГц
Частота кадров : 93,750 кадра/сек (512 SPF)
Битовая глубина : 24 бит
Метод сжатия : С потерями
Размер потока : 736 Мбайт (1%)
Заголовок : Dub, Blu-Ray
Язык : Russian
Default : Да
Forced : Нет

Аудио #2
Идентификатор : 3
Формат : DTS ES XLL
Формат/Информация : Digital Theater Systems
Коммерческое название : DTS-HD Master Audio
Идентификатор кодека : A_DTS
Продолжительность : 2 ч. 13 м.
Вид битрейта : Переменный
Битрейт : 5062 Кбит/сек
Каналы : 8 каналов
Channel layout : C L R Ls Rs LFE Lb Rb
Частота : 48,0 КГц
Частота кадров : 93,750 кадра/сек (512 SPF)
Битовая глубина : 24 бит
Метод сжатия : Без потерь
Размер потока : 4,74 Гбайт (8%)
Заголовок : М. Яроцкий
Язык : Russian
Default : Нет
Forced : Нет

Аудио #3
Идентификатор : 4
Формат : DTS ES XLL
Формат/Информация : Digital Theater Systems
Коммерческое название : DTS-HD Master Audio
Идентификатор кодека : A_DTS
Продолжительность : 2 ч. 13 м.
Вид битрейта : Переменный
Битрейт : 5115 Кбит/сек
Каналы : 8 каналов
Channel layout : C L R Ls Rs LFE Lb Rb
Частота : 48,0 КГц
Частота кадров : 93,750 кадра/сек (512 SPF)
Битовая глубина : 24 бит
Метод сжатия : Без потерь
Размер потока : 4,79 Гбайт (8%)
Заголовок : Е. Гаевский
Язык : Russian
Default : Нет
Forced : Нет

Аудио #4
Идентификатор : 5
Формат : MLP FBA 16-ch
Формат/Информация : Meridian Lossless Packing FBA with 16-channel presentation
Коммерческое название : Dolby TrueHD with Dolby Atmos
Идентификатор кодека : A_TRUEHD
Продолжительность : 2 ч. 13 м.
Вид битрейта : Переменный
Битрейт : 4461 Кбит/сек
Максимальный битрейт : 7485 Кбит/сек
Каналы : 8 каналов
Channel layout : L R C LFE Ls Rs Lb Rb
Частота : 48,0 КГц
Частота кадров : 1200,000 кадров/сек (40 SPF)
Метод сжатия : Без потерь
Размер потока : 4,18 Гбайт (7%)
Язык : English
Default : Нет
Forced : Нет
Number of dynamic objects : 13
Bed channel count : 1 канал
Bed channel configuration : LFE

Аудио #5
Идентификатор : 6
Формат : AC-3
Формат/Информация : Audio Coding 3
Коммерческое название : Dolby Digital
Идентификатор кодека : A_AC3
Продолжительность : 2 ч. 13 м.
Вид битрейта : Постоянный
Битрейт : 640 Кбит/сек
Каналы : 6 каналов
Channel layout : L R C LFE Ls Rs
Частота : 48,0 КГц
Частота кадров : 31,250 кадров/сек (1536 SPF)
Битовая глубина : 16 бит
Метод сжатия : С потерями
Размер потока : 613 Мбайт (1%)
Язык : English
ServiceKind/String : Complete Main
Default : Нет
Forced : Нет

Текст #1
Идентификатор : 7
Формат : UTF-8
Идентификатор кодека : S_TEXT/UTF8
Идентификатор кодека/Информация : UTF-8 Plain Text
Продолжительность : 2 ч. 10 м.
Битрейт : 1 бит/сек
ElementCount : 28
Размер потока : 1,44 Кбайт (0%)
Заголовок : forced
Язык : Russian
Default : Да
Forced : Нет

Текст #2
Идентификатор : 8
Формат : UTF-8
Идентификатор кодека : S_TEXT/UTF8
Идентификатор кодека/Информация : UTF-8 Plain Text
Продолжительность : 2 ч. 11 м.
Битрейт : 95 бит/сек
ElementCount : 1543
Размер потока : 92,1 Кбайт (0%)
Заголовок : Blu-Ray
Язык : Russian
Default : Нет
Forced : Нет

Текст #3
Идентификатор : 9
Формат : UTF-8
Идентификатор кодека : S_TEXT/UTF8
Идентификатор кодека/Информация : UTF-8 Plain Text
Продолжительность : 2 ч. 11 м.
Битрейт : 113 бит/сек
ElementCount : 2161
Размер потока : 109 Кбайт (0%)
Заголовок : Ruf
Язык : Russian
Default : Нет
Forced : Нет

Текст #4
Идентификатор : 10
Формат : UTF-8
Идентификатор кодека : S_TEXT/UTF8
Идентификатор кодека/Информация : UTF-8 Plain Text
Продолжительность : 2 ч. 11 м.
Битрейт : 108 бит/сек
ElementCount : 2110
Размер потока : 105 Кбайт (0%)
Заголовок : FOCS
Язык : Russian
Default : Нет
Forced : Нет

Текст #5
Идентификатор : 11
Формат : UTF-8
Идентификатор кодека : S_TEXT/UTF8
Идентификатор кодека/Информация : UTF-8 Plain Text
Продолжительность : 52 м. 55 с.
Битрейт : 0 бит/сек
ElementCount : 4
Размер потока : 93,0 байт (0%)
Заголовок : forced
Язык : English
Default : Нет
Forced : Нет

Текст #6
Идентификатор : 12
Формат : UTF-8
Идентификатор кодека : S_TEXT/UTF8
Идентификатор кодека/Информация : UTF-8 Plain Text
Продолжительность : 2 ч. 11 м.
Битрейт : 63 бит/сек
ElementCount : 2117
Размер потока : 61,6 Кбайт (0%)
Заголовок : full
Язык : English
Default : Нет
Forced : Нет

Текст #7
Идентификатор : 13
Формат : UTF-8
Идентификатор кодека : S_TEXT/UTF8
Идентификатор кодека/Информация : UTF-8 Plain Text
Продолжительность : 2 ч. 13 м.
Битрейт : 71 бит/сек
ElementCount : 2426
Размер потока : 69,6 Кбайт (0%)
Заголовок : SDH
Язык : English
Default : Нет
Forced : Нет

Меню
00:00:00.000 : en:Chapter 01
00:02:31.693 : en:Chapter 03
00:07:55.516 : en:Chapter 05
00:10:46.228 : en:Chapter 07
00:14:21.193 : en:Chapter 09
00:17:42.936 : en:Chapter 11
00:19:10.774 : en:Chapter 13
00:24:14.369 : en:Chapter 15
00:27:11.630 : en:Chapter 17
00:37:17.443 : en:Chapter 19
00:42:11.820 : en:Chapter 21
00:44:40.427 : en:Chapter 23
00:49:30.926 : en:Chapter 25
00:52:20.470 : en:Chapter 27
00:56:47.612 : en:Chapter 29
01:01:00.073 : en:Chapter 31
01:04:47.049 : en:Chapter 33
01:07:22.997 : en:Chapter 35
01:09:45.097 : en:Chapter 37
01:11:45.426 : en:Chapter 39
01:15:21.016 : en:Chapter 41
01:19:19.212 : en:Chapter 43
01:21:00.188 : en:Chapter 45
01:24:49.542 : en:Chapter 47
01:29:10.845 : en:Chapter 49
01:32:30.419 : en:Chapter 51
01:36:11.390 : en:Chapter 53
01:38:18.851 : en:Chapter 55
01:42:06.328 : en:Chapter 57
01:44:18.710 : en:Chapter 59
01:46:03.774 : en:Chapter 61
01:48:06.730 : en:Chapter 63
01:51:31.976 : en:Chapter 65
01:55:05.398 : en:Chapter 67
01:58:16.047 : en:Chapter 69
02:02:04.317 : en:Chapter 71
02:13:59.322 : en:Chapter 72
pb.wtf



Скачать Дэдпул 2 через торрент https://b.radikal.ru/b39/1907/c8/1f406487fc58.png Скачать, смотреть онлайн Дэдпул 2 бесплантно в хорошем качестве Описание: Единственный и неповторимый болтливый наемник - вернулся! Ещё более масштабный, ещё более разрушительный и даже ещё более ... 10 10 3
Info! Золотая раздача, скачанное не засчитывается.
Торрент: Зарегистрирован [2019-07-25 11:42] · скачан: 89 раз
Статус: √ проверено
Размер: 60.72 GB
Как cкачать? Как скачать Дэдпул 2 через торрент | UTorrent

% Раздел Тема Автор DL S | L
Фильмы [HD 720p, 1080p] (Хороший звук DUB, MVO) [ 9.74 GB ] Дэдпул 2 / Deadpool 2 [2018 BDRip 720p] [Расширенная версия] 2xAVO+DUB [] bober100 Скачать
1 | 0
Фильмы [HD 720p, 1080p] (Хороший звук DUB, MVO) [ 20.62 GB ] Дэдпул 2 / Deadpool 2 [2018 BDRip 1080p] [Расширенная версия] 2xAVO+DUB [] bober100 Скачать
1 | 0

28-11-2019 20:33  

Отключить всю рекламу на сайте

    Дорогой пользователь! Огромная просьба, поблагодарите релизера, оцените раздачу и оставьте свои комментарий, если Вы скачали Дэдпул 2 через торрент бесплатно!
    Комментировать посты могут только пользователи прошедшие не сложную регистрацию
    Показать сообщения:    

    Дэдпул 2 через торрент
    Скачать бесплатно Дэдпул 2
    Дэдпул 2 скачать торрент
    Дэдпул 2 смотреть онлайн
    Cкачать фильм Дэдпул 2 бесплатно
    Дэдпул 2 скачать торрент в хорошем качестве
    Дэдпул 2 смотреть онлайн бесплатно в хорошем качестве


    Вы не можете начинать темы
    Вы не можете отвечать на сообщения
    Вы не можете редактировать свои сообщения
    Вы не можете удалять свои сообщения
    Вы не можете голосовать в опросах
    Вы не можете прикреплять файлы к сообщениям
    Вы можете скачивать файлы