Ссылка на приватное зеркало всего за 1$. Внимание количество ограничено!!!

iTunes

1+1

iTunes

мы

WEB-DL

1

iTunes

Чернобыль

iTunes

Ральф против интернета

Лицензия

ПШазам

Лицензия

Оно 2

Лицензия

30
pack

Вам бонус

ВАЖНО

!!Акция!!

Alien_RageХит недели

RePack

Resident Evil 21

ИГРА 18+

pack

RePack

jed

!!Акция!!

Alien_Rage

RePack

fifa19

RePack

Assassins Creed: Odyssey

RePack

NEED FOR SPEED™ PAYBACK

3 сезон

9 сезон

Бесстыжие 9 сезон

Все сериалы

все сериалы на PB.wtf

RePack

FAR CRY 5
Ребята, катастрофически не хватает 1900р. для оплаты серверов за Октябрь (всвязи с блокировками трафик упал в 3 раза), 1-2р., выручайте.
  

Ядовитая роза / The Poison Rose (Франческо Синкуемани, Джордж Галло, Лука Гилиберто) [2019, Триллер, BDRip-AVC] DUB [iTunes] +MVO [HDRezka Studio] pb.wtf

Ядовитая роза через торрент pb.wtf

Раздают: 4 [ 0 KB/s ]
Размер: 2.12 GB | Добавлен: 4 мес. 18 д. назад | Торрент скачан:125 раз
Скачать  

26-07-2019 02:33 Ядовитая роза Скачать торрент  

Ядовитая роза / The Poison Rose
Год выпуска: 2019
Страна: США, Италия
Жанр: Триллер
Продолжительность: 01:37:50
Перевод:

Дублированный | iTunes
Профессиональный многоголосый | HDRezka Studio

Субтитры: Английские

Режиссер: Франческо Синкуемани, Джордж Галло, Лука Гилиберто

rating

В ролях:

Брендан Фрейзер, Фамке Янссен, Морган Фриман, Джон Траволта, Петер Стормаре, Клаудия Джерини, Роберт Патрик, Кэт Грэхэм, Элла Блю Траволта, Ник Валлелонга

Описание:

Карсон Филипс в прошлом - звезда футбола, теперь - частный детектив. В его руки попадает простое, на первый взгляд, дело о пропавших без вести. Но расследование принимает неожиданный поворот: в запутанной череде жестоких преступлений замешана его дочь, которая давно бесследно исчезла.

Качество: BDRip-AVC
Формат: MKV

Видео: 1024x436 (2.35:1), 23,976 fps, x264 ~1 825 kbps avg, 0.170 bit/pixel
Аудио#1: 48 kHz, AC3 Dolby Digital, 3/2 (L,C,R,l,r) + LFE ch, ~384.00 kbps avg | RUS (iTunes)
Аудио#2: 48 kHz, AC3 Dolby Digital, 3/2 (L,C,R,l,r) + LFE ch, ~448.00 kbps avg | RUS (HDRezka Studio)***
Аудио#3: 48 kHz, AC3 Dolby Digital, 3/2 (L,C,R,l,r) + LFE ch, ~448.00 kbps avg | ENG

Цитата:

*** Дорожка от HDRezka Studio получена путем замены участков с английской речью в центральном канале оригинала, на аналогичные с микшированной в моно дорожки HDRezka Studio. Работа со звуком potroks.

скриншот  скриншот  скриншот  скриншот  скриншот  

Общее
Уникальный идентификатор : 229032362634162393373395045231758185461 (0xAC4E074E99919D9A4FE5D1162F7C93F5)
Полное имя : F:OlLanDGroupThe.Poison.Rose.2019.BDRip(AVC).OllanDGroup.mkv
Формат : Matroska
Версия формата : Version 4 / Version 2
Размер файла : 2,12 Гбайт
Продолжительность : 1 ч. 37 м.
Общий поток : 3102 Кбит/сек
Название фильма : The Poison Rose (2019) #TorpedoUK#
Дата кодирования : UTC 2019-07-26 02:17:49
Программа кодирования : mkvmerge v29.0.0 ('Like It Or Not') 64-bit
Библиотека кодирования : libebml v1.3.6 + libmatroska v1.4.9

Видео
Идентификатор : 1
Формат : AVC
Формат/Информация : Advanced Video Codec
Профиль формата : High@L4.1
Параметр CABAC формата : Да
Параметр ReFrames формата : 10 кадров
Идентификатор кодека : V_MPEG4/ISO/AVC
Продолжительность : 1 ч. 37 м.
Битрейт : 1825 Кбит/сек
Ширина : 1024 пикселя
Высота : 436 пикселей
Соотношение сторон : 2,35:1
Режим частоты кадров : Постоянный
Частота кадров : 23,976 (24000/1001) кадра/сек
Цветовое пространство : YUV
Субдискретизация насыщенности : 4:2:0
Битовая глубина : 8 бит
Тип развёртки : Прогрессивная
Бит/(Пиксели*Кадры) : 0.170
Размер потока : 1,24 Гбайт (59%)
Библиотека кодирования : x264 core 146 r2538 121396c
Настройки программы : cabac=1 / ref=10 / deblock=1:-3:-3 / analyse=0x3:0x113 / me=umh / subme=11 / psy=1 / psy_rd=0.99:0.04 / mixed_ref=1 / me_range=48 / chroma_me=1 / trellis=2 / 8x8dct=1 / cqm=0 / deadzone=21,11 / fast_pskip=1 / chroma_qp_offset=-3 / threads=6 / lookahead_threads=1 / sliced_threads=0 / nr=0 / decimate=1 / interlaced=0 / bluray_compat=0 / constrained_intra=0 / bframes=11 / b_pyramid=2 / b_adapt=2 / b_bias=0 / direct=3 / weightb=1 / open_gop=0 / weightp=2 / keyint=240 / keyint_min=23 / scenecut=40 / intra_refresh=0 / rc_lookahead=40 / rc=2pass / mbtree=0 / bitrate=1825 / ratetol=1.0 / qcomp=0.60 / qpmin=0 / qpmax=69 / qpstep=4 / cplxblur=20.0 / qblur=0.5 / vbv_maxrate=50000 / vbv_bufsize=62500 / nal_hrd=none / filler=0 / ip_ratio=1.40 / pb_ratio=1.30 / aq=1:1.00
Язык : English
Default : Да
Forced : Нет

Аудио #1
Идентификатор : 2
Формат : AC-3
Формат/Информация : Audio Coding 3
Расширение режима : CM (complete main)
Параметр Endianness формата : Big
Идентификатор кодека : A_AC3
Продолжительность : 1 ч. 37 м.
Вид битрейта : Постоянный
Битрейт : 384 Кбит/сек
Каналы : 6 каналов
Расположение каналов : Front: L C R, Side: L R, LFE
Частота : 48,0 КГц
Частота кадров : 31,250 кадров/сек (1536 spf)
Битовая глубина : 16 бит
Метод сжатия : С потерями
Размер потока : 269 Мбайт (12%)
Заголовок : DUB [iTunes]
Язык : Russian
Default : Да
Forced : Нет

Аудио #2
Идентификатор : 3
Формат : AC-3
Формат/Информация : Audio Coding 3
Расширение режима : CM (complete main)
Параметр Endianness формата : Big
Идентификатор кодека : A_AC3
Продолжительность : 1 ч. 37 м.
Вид битрейта : Постоянный
Битрейт : 448 Кбит/сек
Каналы : 6 каналов
Расположение каналов : Front: L C R, Side: L R, LFE
Частота : 48,0 КГц
Частота кадров : 31,250 кадров/сек (1536 spf)
Битовая глубина : 16 бит
Метод сжатия : С потерями
Размер потока : 314 Мбайт (14%)
Заголовок : MVO [HDRezka Studio]
Язык : Russian
Default : Нет
Forced : Нет

Аудио #3
Идентификатор : 4
Формат : AC-3
Формат/Информация : Audio Coding 3
Расширение режима : CM (complete main)
Параметр Endianness формата : Big
Идентификатор кодека : A_AC3
Продолжительность : 1 ч. 37 м.
Вид битрейта : Постоянный
Битрейт : 448 Кбит/сек
Каналы : 6 каналов
Расположение каналов : Front: L C R, Side: L R, LFE
Частота : 48,0 КГц
Частота кадров : 31,250 кадров/сек (1536 spf)
Битовая глубина : 16 бит
Метод сжатия : С потерями
Размер потока : 314 Мбайт (14%)
Заголовок : [Original]
Язык : English
Default : Нет
Forced : Нет

Текст #1
Идентификатор : 5
Формат : UTF-8
Идентификатор кодека : S_TEXT/UTF8
Идентификатор кодека/Информация : UTF-8 Plain Text
Продолжительность : 1 ч. 31 м.
Битрейт : 61 бит/сек
Count of elements : 1206
Размер потока : 40,8 Кбайт (0%)
Заголовок : Full
Язык : English
Default : Нет
Forced : Нет

Текст #2
Идентификатор : 6
Формат : UTF-8
Идентификатор кодека : S_TEXT/UTF8
Идентификатор кодека/Информация : UTF-8 Plain Text
Продолжительность : 1 ч. 31 м.
Битрейт : 64 бит/сек
Count of elements : 1285
Размер потока : 43,1 Кбайт (0%)
Заголовок : SDH
Язык : English
Default : Нет
Forced : Нет

Меню
00:00:00.000 : en:Chapter 01
00:13:44.740 : en:Chapter 02
00:28:56.776 : en:Chapter 03
00:42:05.147 : en:Chapter 04
00:54:10.205 : en:Chapter 05
01:06:49.880 : en:Chapter 06
01:22:01.708 : en:Chapter 07
01:33:05.496 : en:Chapter 08

pb.wtf



Скачать Ядовитая роза через торрент https://i110.fastpic.ru/big/2019/0530/3b/83a4eec9fd62b2f32409a97754787a3b.png Скачать фильм Ядовитая роза через торрент бесплантно в хорошем качестве Описание: Карсон Филипс в прошлом - звезда футбола, теперь - частный детектив. В его руки попадает простое, на первый взгляд, дело о ... 10 10 5
Торрент: Зарегистрирован [2019-07-26 02:33] · скачан: 125 раз
Статус: √ проверено
Размер: 2.12 GB
Как cкачать? Как скачать Ядовитая роза через торрент | qTorrent

% Раздел Тема Автор DL S | L
Фильмы 2019 [DVDrip, WEB-DLRip, HDrip] (DUB, MVO) [ 1.42 GB ] Ядовитая роза / The Poison Rose [2019 BDRip] - Twi7ter Скачать
54 | 1
Фильмы 2019 [DVDrip, WEB-DLRip, HDrip] (DUB, MVO) [ 1.42 GB ] Ядовитая роза / The Poison Rose [2019 BDRip] bober100 Скачать
36 | 0
Фильмы 2019 [DVDrip, WEB-DLRip, HDrip] (DUB, MVO) [ 705 MB ] Ядовитая роза / The Poison Rose [2019 HDRip ""] coc900 Скачать
1 | 0
Фильмы (Blu-ray, BD-Remux, HDDVD) [ 23.36 GB ] Ядовитая роза / The Poison Rose [2019 BD Remux 1080p] bober100 Скачать
2 | 0
Фильмы [HD 720p, 1080p] (Хороший звук DUB, MVO) [ 6.32 GB ] Ядовитая роза / The Poison Rose [2019 BDRip 720p] bober100 Скачать
2 | 0
Фильмы [HD 720p, 1080p] (Хороший звук DUB, MVO) [ 14.52 GB ] Ядовитая роза / The Poison Rose [2019 BDRip 1080p] bober100 Скачать
1 | 0
Фильмы [HD 720p, 1080p] (Хороший звук DUB, MVO) [ 9.53 GB ] Ядовитая роза / The Poison Rose [2019 BDRip 1080p] MVO [HDrezka Studio] bober100 Скачать
3 | 0

28-11-2019 20:33  

Отключить всю рекламу на сайте

    Дорогой пользователь! Огромная просьба, поблагодарите релизера, оцените раздачу и оставьте свои комментарий, если Вы скачали Ядовитая роза через торрент бесплатно! Внесите свою лепту в развитие PiratBit!
    Комментировать посты могут только пользователи прошедшие не сложную регистрацию
    Показать сообщения:    

    Ядовитая роза через торрент
    Скачать бесплатно Ядовитая роза
    Ядовитая роза скачать торрент
    Ядовитая роза смотреть онлайн
    Cкачать фильм Ядовитая роза бесплатно
    Ядовитая роза скачать торрент в хорошем качестве
    Ядовитая роза смотреть онлайн бесплатно в хорошем качестве


    Вы не можете начинать темы
    Вы не можете отвечать на сообщения
    Вы не можете редактировать свои сообщения
    Вы не можете удалять свои сообщения
    Вы не можете голосовать в опросах
    Вы не можете прикреплять файлы к сообщениям
    Вы можете скачивать файлы