новый адрес
Ссылка на приватное зеркало всего за 1$. Внимание количество ограничено!!!

iTunes

1+1

iTunes

мы

iTunes

1

iTunes

Чернобыль

iTunes

Ральф против интернета

Лицензия

ПШазам

Лицензия

Оно 2

Лицензия

30
pack

Вам бонус

ВАЖНО

!!Акция!!

Alien_RageХит недели

RePack

Resident Evil 21

ИГРА 18+

pack

RePack

jed

!!Акция!!

Alien_Rage

RePack

fifa19

RePack

Assassins Creed: Odyssey

RePack

NEED FOR SPEED™ PAYBACK

3 сезон

9 сезон

Бесстыжие 9 сезон

Все сериалы

все сериалы на PB.wtf

RePack

FAR CRY 5
Ребята, катастрофически не хватает 1900р. для оплаты серверов за Октябрь (всвязи с блокировками трафик упал в 3 раза), 1-2р., выручайте.
  

Мы / Us (Джордан Пил) [2019, ужасы, триллер, BDRip-AVC] DUB [Лицензия] pb.wtf

Мы через торрент pb.wtf

Раздают: 1 [ 0 KB/s ]
Размер: 2.19 GB | Добавлен: 4 мес. 10 д. назад | Торрент скачан:143 раза
Скачать  

26-07-2019 06:43 Мы Скачать торрент  

Мы / Us
Год выпуска: 2019
Страна: США, Япония, Китай
Жанр: ужасы, триллер
Продолжительность: 01:56:27
Перевод: Дублированный | Лицензия
Субтитры: Русские (форс., полные), английские (полные)

Режиссер: Джордан Пил

rating

В ролях:

Лупита Нионго, Уинстон Дьюк, Элизабет Мосс, Тим Хайдекер, Шахади Райт Джозеф, Эван Алекс, Яхья Абдул-Матин II, Анна Диоп, Кали Шелдон, Ноэль Шелдон, Мэдисон Карри, Эшли МакКой, Напьера Гровс, Лон Гоуэн, Дастин Ибарра

Описание:

Будучи маленькой девочкой, Аделаида пережила травмирующее событие. В парке развлечений на побережье она отошла от родителей и забрела в зеркальный лабиринт, где встретила свою точную копию. Через много лет, уже с мужем и детьми, Аделаида приезжает в дом бабушки, который находится рядом с тем самым злосчастным парком, и с самого начала женщина чувствует себя не в своей тарелке. Муж считает, что в таком прекрасном месте нужно расслабляться, а не нервничать, но его мнение быстро меняется, когда перед домом появляются незнакомцы в красных комбинезонах с явно агрессивными намерениями.

Качество: BDRip-AVC
Формат: MKV

Видео: 1024x428 (2.40:1), 23,976 fps, x264 ~1 796 kbps avg, 0.171 bit/pixel
Аудио#1: 48 kHz, AC3 Dolby Digital, 3/2 (L,C,R,l,r) + LFE ch, ~448.00 kbps avg | RUS (Лицензия)
Аудио#2: 48 kHz, AC3 Dolby Digital, 3/2 (L,C,R,l,r) + LFE ch, ~448.00 kbps avg | ENG
скриншот  скриншот  скриншот  скриншот  скриншот  

Общее
Уникальный идентификатор : 163541895549978546302775693827825360582 (0x7B0905FC3DEA865684BD5117D9365EC6)
Полное имя : F:OlLanDGroupUs.2019.BDRip(AVC).OllanDGroup.mkv
Формат : Matroska
Версия формата : Version 4 / Version 2
Размер файла : 2,19 Гбайт
Продолжительность : 1 ч. 56 м.
Общий поток : 2694 Кбит/сек
Название фильма : Us.2019 #TorpedoUK#
Дата кодирования : UTC 2019-07-26 03:25:37
Программа кодирования : mkvmerge v29.0.0 ('Like It Or Not') 64-bit
Библиотека кодирования : libebml v1.3.6 + libmatroska v1.4.9

Видео
Идентификатор : 1
Формат : AVC
Формат/Информация : Advanced Video Codec
Профиль формата : High@L4.1
Параметр CABAC формата : Да
Параметр ReFrames формата : 10 кадров
Идентификатор кодека : V_MPEG4/ISO/AVC
Продолжительность : 1 ч. 56 м.
Битрейт : 1796 Кбит/сек
Ширина : 1024 пикселя
Высота : 428 пикселей
Соотношение сторон : 2,40:1
Режим частоты кадров : Постоянный
Частота кадров : 23,976 (24000/1001) кадра/сек
Цветовое пространство : YUV
Субдискретизация насыщенности : 4:2:0
Битовая глубина : 8 бит
Тип развёртки : Прогрессивная
Бит/(Пиксели*Кадры) : 0.171
Размер потока : 1,46 Гбайт (67%)
Библиотека кодирования : x264 core 146 r2538 121396c
Настройки программы : cabac=1 / ref=10 / deblock=1:-3:-3 / analyse=0x3:0x113 / me=umh / subme=11 / psy=1 / psy_rd=0.99:0.04 / mixed_ref=1 / me_range=48 / chroma_me=1 / trellis=2 / 8x8dct=1 / cqm=0 / deadzone=21,11 / fast_pskip=1 / chroma_qp_offset=-3 / threads=6 / lookahead_threads=1 / sliced_threads=0 / nr=0 / decimate=1 / interlaced=0 / bluray_compat=0 / constrained_intra=0 / bframes=11 / b_pyramid=2 / b_adapt=2 / b_bias=0 / direct=3 / weightb=1 / open_gop=0 / weightp=2 / keyint=240 / keyint_min=23 / scenecut=40 / intra_refresh=0 / rc_lookahead=40 / rc=2pass / mbtree=0 / bitrate=1796 / ratetol=1.0 / qcomp=0.60 / qpmin=0 / qpmax=69 / qpstep=4 / cplxblur=20.0 / qblur=0.5 / vbv_maxrate=50000 / vbv_bufsize=62500 / nal_hrd=none / filler=0 / ip_ratio=1.40 / pb_ratio=1.30 / aq=1:1.00
Язык : English
Default : Да
Forced : Нет

Аудио #1
Идентификатор : 2
Формат : AC-3
Формат/Информация : Audio Coding 3
Расширение режима : CM (complete main)
Параметр Endianness формата : Big
Идентификатор кодека : A_AC3
Продолжительность : 1 ч. 56 м.
Вид битрейта : Постоянный
Битрейт : 448 Кбит/сек
Каналы : 6 каналов
Расположение каналов : Front: L C R, Side: L R, LFE
Частота : 48,0 КГц
Частота кадров : 31,250 кадров/сек (1536 spf)
Битовая глубина : 16 бит
Метод сжатия : С потерями
Размер потока : 373 Мбайт (17%)
Заголовок : DUB [License]
Язык : Russian
Default : Да
Forced : Нет

Аудио #2
Идентификатор : 3
Формат : AC-3
Формат/Информация : Audio Coding 3
Расширение режима : CM (complete main)
Параметр Endianness формата : Big
Идентификатор кодека : A_AC3
Продолжительность : 1 ч. 56 м.
Вид битрейта : Постоянный
Битрейт : 448 Кбит/сек
Каналы : 6 каналов
Расположение каналов : Front: L C R, Side: L R, LFE
Частота : 48,0 КГц
Частота кадров : 31,250 кадров/сек (1536 spf)
Битовая глубина : 16 бит
Метод сжатия : С потерями
Размер потока : 373 Мбайт (17%)
Заголовок : [Original]
Язык : English
Default : Нет
Forced : Нет

Текст #1
Идентификатор : 4
Формат : UTF-8
Идентификатор кодека : S_TEXT/UTF8
Идентификатор кодека/Информация : UTF-8 Plain Text
Продолжительность : 10 м. 47 с.
Битрейт : 5 бит/сек
Count of elements : 7
Размер потока : 428 байт (0%)
Заголовок : Forced
Язык : Russian
Default : Да
Forced : Нет

Текст #2
Идентификатор : 5
Формат : UTF-8
Идентификатор кодека : S_TEXT/UTF8
Идентификатор кодека/Информация : UTF-8 Plain Text
Продолжительность : 1 ч. 49 м.
Битрейт : 53 бит/сек
Count of elements : 1007
Размер потока : 43,0 Кбайт (0%)
Заголовок : Full
Язык : Russian
Default : Нет
Forced : Нет

Текст #3
Идентификатор : 6
Формат : UTF-8
Идентификатор кодека : S_TEXT/UTF8
Идентификатор кодека/Информация : UTF-8 Plain Text
Продолжительность : 1 ч. 49 м.
Битрейт : 35 бит/сек
Count of elements : 1038
Размер потока : 28,6 Кбайт (0%)
Заголовок : Full
Язык : English
Default : Нет
Forced : Нет

Меню
00:00:00.000 : :Глава 01
00:06:05.156 : :Глава 02
00:11:25.351 : :Глава 03
00:17:12.114 : :Глава 04
00:23:24.653 : :Глава 05
00:29:31.519 : :Глава 06
00:36:07.790 : :Глава 07
00:41:07.756 : :Глава 08
00:48:08.302 : :Глава 09
00:55:43.256 : :Глава 10
01:03:00.318 : :Глава 11
01:07:49.356 : :Глава 12
01:14:25.294 : :Глава 13
01:20:12.015 : :Глава 14
01:25:25.954 : :Глава 15
01:29:44.045 : :Глава 16
01:35:21.674 : :Глава 17
01:40:54.548 : :Глава 18
01:47:36.908 : :Глава 19
01:52:14.394 : :Глава 20

pb.wtf



Скачать Мы через торрент http://img16.lostpic.net/2019/06/11/7d18c03b242bdeb79b317b68e37bd4f4.jpg Скачать фильм Мы через торрент бесплантно в хорошем качестве Описание: Будучи маленькой девочкой, Аделаида пережила травмирующее событие. В парке развлечений на побережье она отошла от родителей и ... 10 10 6
Info! Золотая раздача, скачанное не засчитывается.
Торрент: Зарегистрирован [2019-07-26 06:43] · скачан: 143 раз
Статус: √ проверено
Размер: 2.19 GB
Как cкачать? Как скачать Мы через торрент | qTorrent

% Раздел Тема Автор DL S | L
Порно фильмы без сюжета [ 1.52 GB ] Самые Горячие Оргии / Das geilste aus Orgien [2010 Group Sex All Sex Fisting Lesbian Gang Bang Double Penetration. DVDRip] Pir@tya2010 Скачать
2 | 0
Eurodance, Technopop, Disco (lossless) [ 1.86 GB ] Dr. Alban Студийные альбомы - 5CD [FLAC lossless] tauras Скачать
1 | 0
Фильмы 2012 [ 1.46 GB ] Люди как мы / People Like Us [2012 BDRip] MVO Ворон Скачать
1 | 0
Иностранные мультфильмы [ 702 MB ] Смывайся / Flushed Away [2006 мультфильм HDRip] DUB shuller Скачать
1 | 0
Видеоуроки [ 952 MB ] Василий Ульянов / Умный Пресс Тренинг : как легко сжечь жир и заставить мышцы живота расти! [2010 Фитнесс DVDRip RUS] BelkaVV Скачать
1 | 0
BBC [ 703 MB ] Действительно ли алкоголь хуже чем экстази? / Is alcohol worse than ecstasy? [2008 Документальный SATRip] Anonymous Скачать
1 | 0
Аниме [HD 720p, 1080p] [ 3.28 GB ] Князь тьмы с задней парты / Ichiban Ushiro no Daimaou [2010 этти HDTVRip ] Futura 202 Скачать
1 | 0
Отключить всю рекламу на сайте

26-07-2019 07:21 Мы Скачать торрент  

Нечего тут хвалить, расходимся!pb.wtf



    Дорогой пользователь! Огромная просьба, поблагодарите релизера, оцените раздачу и оставьте свои комментарий, если Вы скачали Мы через торрент бесплатно! Внесите свою лепту в развитие PiratBit!
    Комментировать посты могут только пользователи прошедшие не сложную регистрацию
    Показать сообщения:    

    Мы через торрент
    Скачать бесплатно Мы
    Мы скачать торрент
    Мы смотреть онлайн
    Cкачать фильм Мы бесплатно
    Мы скачать торрент в хорошем качестве
    Мы смотреть онлайн бесплатно в хорошем качестве


    Вы не можете начинать темы
    Вы не можете отвечать на сообщения
    Вы не можете редактировать свои сообщения
    Вы не можете удалять свои сообщения
    Вы не можете голосовать в опросах
    Вы не можете прикреплять файлы к сообщениям
    Вы можете скачивать файлы