2 сезон

iTunes

1 сезон

1

iTunes

iTunes

iTunes

1 сезон

RePack

30

ИГРА 18+

pack

ВАЖНО

!!Акция!!

Alien_RageХит недели

RePack

MK11
pack

Забери бонус

RePack

jed

!!Акция!!

Alien_Rage

RePack

fifa19

RePack

Assassins Creed: Odyssey

RePack

NEED FOR SPEED™ PAYBACK

4 сезон

9 сезон

Бесстыжие 9 сезон

Все сериалы

все сериалы на PB.wtf

RePack

FAR CRY 5
  

Затмение / Серии: 1-8 из 8 (Антон Азаров) [2018, драма, мелодрама, WEBRip 720p] pb.wtf

Затмение через торрент pb.wtf

Размер: 7.8 GB | Добавлен: 1 год 3 мес. назад | Торрент скачан:47 раз
Скачать  

26-07-2019 07:50 Затмение Скачать торрент  

Затмение Год выпуска: 2018
Страна: Украина
Жанр: драма, мелодрама
Продолжительность: ~00:44:00 серия
Перевод: Не требуется
Субтитры: нет

Режиссёр: Антон Азаров



В ролях: Елена Великанова, Андрей Барило, Богдан Буйлук, Ирина Гришак, Наталья Доля, Анна Румик, Анастасия Шульга, Роман Ясиновский, Сергей Дзялик, Ли Берлинская, Александр Ярема

Описание: Когда-то они учились в одной школе, умница и красавица Света Гнатюк и неприметный троечник Сережка Мамаев. Обычная история – он отчаянно в неё влюблен, а она совсем не обращала на него внимания. Прошло 20 лет. Уже никто не называет Мамаева пренебрежительно «Серый»: он владелец крупного агрохолдинга, холост, от женщин отбоя нет. Светлана живет значительно скромнее, замужем, счастлива в браке, есть дети. Случайная встреча - и Сергей понимает, что всю жизнь любил только Светлану и ему нужна только она. Однако, как и в юности, Светлана не отвечает на его чувства. Но в этот раз Сергей не отступит: его маниакальное стремление заполучить женщину запускает цепочку трагических событий...

Качество: WEBRip 720p
Формат: MKV

Видео: 1280х720 (16:9), 25 fps, AVC MPEG-4 (x264), High@L3.1 ~ 3000 kbps , 0.130 bit/pixel
Аудио: 48 kHz, AC3, 2/0 (L,R) ch, ~192.00 kbps avg
скриншот  скриншот  скриншот  скриншот  

скриншот  скриншот  скриншот  скриншот  

Общее
Уникальный идентификатор : 9493408319183306528247342842495753416 (0x7245D2AE2860E6DD7FDA6F9C131DCC8)
Полное имя : C:\Затмение.2018.WEBRip (720p).by.Nicodem.Files-x\01.Затмение.2018.WEBRip (720p).by.Nicodem.Files-x.mkv
Формат : Matroska
Версия формата : Version 4 / Version 2
Размер файла : 981 Мбайт
Продолжительность : 43 м. 3 с.
Режим общего битрейта : Постоянный
Общий поток : 3186 Кбит/сек
Программа кодирования : Lavf56.36.100
Библиотека кодирования : Lavf56.36.100

Видео
Идентификатор : 1
Формат : AVC
Формат/Информация : Advanced Video Codec
Профиль формата : High@L3.1
Настройки формата : 2 Ref Frames
Параметр CABAC формата : Нет
Параметр RefFrames формата : 2 кадра
Идентификатор кодека : V_MPEG4/ISO/AVC
Продолжительность : 43 м. 3 с.
Вид битрейта : Постоянный
Битрейт : 3000 Кбит/сек
Ширина : 1280 пикселей
Высота : 720 пикселей
Соотношение сторон : 16:9
Режим частоты кадров : Постоянный
Частота кадров : 25,000 кадров/сек
Стандарт вещания : PAL
Цветовое пространство : YUV
Субдискретизация насыщенности : 4:2:0
Битовая глубина : 8 бит
Тип развёртки : Прогрессивная
Бит/(Пиксели*Кадры) : 0.130
Размер потока : 903 Мбайт (92%)
Default : Да
Forced : Нет
Цветовой диапазон : Limited
Основные цвета : BT.709
Характеристики трансфера : BT.709
Коэффициенты матрицы : BT.709

Аудио
Идентификатор : 2
Формат : AC-3
Формат/Информация : Audio Coding 3
Идентификатор кодека : A_AC3
Продолжительность : 43 м. 3 с.
Вид битрейта : Постоянный
Битрейт : 192 Кбит/сек
Каналы : 2 канала
Расположение каналов : Front: L R
Частота : 48,0 КГц
Частота кадров : 31,250 кадров/сек (1536 SPF)
Битовая глубина : 16 бит
Метод сжатия : С потерями
Задержка видео : -40 мс.
Размер потока : 59,1 Мбайт (6%)
Язык : unknown
ServiceKind/String : Complete Main
Default : Да
Forced : Нет

pb.wtf



Скачать Затмение через торрент http://i102.fastpic.ru/big/2018/0828/74/3a7dc9256a7235b3cd6b52a32e568e74.jpg Скачать фильм Затмение через торрент бесплантно в хорошем качестве Описание: Когда-то они учились в одной школе, умница и красавица Света Гнатюк и неприметный троечник Сережка Мамаев. Обычная история – он ... 10 10 2
Торрент: Зарегистрирован [2019-07-26 08:25] · скачан: 47 раз
Статус: √ проверено
Размер: 7.8 GB
Как cкачать? Как скачать Затмение через торрент | qTorrent

% Раздел Тема Автор DL S | L
Наши сериалы [ 4.17 GB ] Затмение / Серии: 1-8 из 8 [2018 WEB-DLRip] bober100 Скачать
1 | 0

28-11-2019 20:33  

Отключить всю рекламу на сайте

    Дорогой пользователь! Огромная просьба, поблагодарите релизера, оцените раздачу и оставьте свои комментарий, если Вы скачали Затмение через торрент бесплатно! Внесите свою лепту в развитие PiratBit!
    Комментировать посты могут только пользователи прошедшие не сложную регистрацию
    Показать сообщения:    

    Затмение через торрент
    Скачать бесплатно Затмение
    Затмение скачать торрент
    Затмение смотреть онлайн
    Cкачать фильм Затмение бесплатно
    Затмение скачать торрент в хорошем качестве
    Затмение смотреть онлайн бесплатно в хорошем качестве


    Вы не можете начинать темы
    Вы не можете отвечать на сообщения
    Вы не можете редактировать свои сообщения
    Вы не можете удалять свои сообщения
    Вы не можете голосовать в опросах
    Вы не можете прикреплять файлы к сообщениям
    Вы можете скачивать файлы