Ссылка на приватное зеркало нашего сайта всего за 1$. Внимание количество ограничено!!!

2 сезон

iTunes

1 сезон

1

2 сезон

2 сезон

iTunes

1 сезон

RePack

30

Новинка

ВАЖНО

ИГРА 18+

pack

RePack

MK11
pack

Забери бонус

RePack

jed

!!Акция!!

Alien_Rage

RePack

fifa19

RePack

Assassins Creed: Odyssey

RePack

NEED FOR SPEED™ PAYBACK

4 сезон

9 сезон

Бесстыжие 9 сезон

Все сериалы

все сериалы на PB.wtf

RePack

FAR CRY 5
  

Предмет красоты / The Object of Beauty (Майкл Линдсей-Хогг / Michael Lindsay-Hogg) [1991, драма, комедия, криминал, WEB-DL 720p от KORSAR] [2xDVO] pb.wtf

Предмет красоты через торрент pb.wtf

Размер: 4.94 GB | Добавлен: 1 год 4 мес. назад | Торрент скачан:8 раз
Скачать  

26-07-2019 10:25 Предмет красоты Скачать торрент  

Предмет красоты / The Object of Beauty

Страна: Великобритания, США
Жанр: драма, комедия, криминал
Год выпуска: 1991
Продолжительность: 01:42:37
Режиссер: Майкл Линдсей-Хогг / Michael Lindsay-Hogg
В ролях: Джон Малкович, Энди МакДауэлл, Лолита Давидович, Руди Дейвис, Джосс Экленд, Билл Патерсон, Риччи Харнетт, Питер Ригерт, Джек Шепард, Розмари Мартин...

Описание: Язвительная, острая комедия об оставшихся без средств супружеской чете, которая решается продать свою самую ценную вещицу — маленькую скульптуру Генри Мура. Когда же решение принято, они с ужасом обнаруживают, что скульптура украдена. В этот отчаянный момент их любовь и доверие друг к другу проходят испытание на прочность.

Релиз от:

Перевод: Профессиональный двухголосый
Субтитры: Английские, немецкие
Навигация по главам: Есть

Качество: WEB-DLRip 720p
Формат: MKV

Видео: MPEG-4 AVC, 6255 Кбит/сек, 1280x720, 23,976 кадра/сек
Аудио #1: AC3, 2 ch, 224 Кбит/сек | Русский, профессиональный (двухголосый закадровый) НТВ+, Жанна Никонова, Андрей Симанов
Аудио #2: AC3, 2 ch, 192 Кбит/сек | Русский, профессиональный (двухголосый закадровый) НТВ+, Марина Бакина, Алексей Войтюк
Аудио #3: AC3, 2 ch, 224 Кбит/сек | Английский, оригинал
x264 [info]: frame I:909 Avg QP:14.20 size:163038
x264 [info]: frame P:29396 Avg QP:16.77 size: 71142
x264 [info]: frame B:117323 Avg QP:18.26 size: 21931
-----------------------------------------------------
Общее
Уникальный идентификатор : 243697381383491211170865385903181665345 (0xB756688E0CFD101D9A47DC36A20E1441)
Полное имя : Предмет.красоты.1991.WEB-DLRip.720p.KORSAR.mkv
Формат : Matroska
Версия формата : Version 2
Размер файла : 4,94 Гбайт
Продолжительность : 1 ч. 42 м.
Общий поток : 6895 Кбит/сек
Дата кодирования : UTC 2018-03-29 10:04:38
Программа кодирования : mkvmerge v5.8.0 ('No Sleep / Pillow') built on Sep 2 2012 15:37:04
Библиотека кодирования : libebml v1.2.3 + libmatroska v1.3.0

Видео
Идентификатор : 1
Формат : AVC
Формат/Информация : Advanced Video Codec
Профиль формата : High@L4.1
Настройки формата : CABAC / 9 Ref Frames
Параметр CABAC формата : Да
Параметр RefFrames формата : 9 кадров
Идентификатор кодека : V_MPEG4/ISO/AVC
Продолжительность : 1 ч. 42 м.
Битрейт : 6255 Кбит/сек
Ширина : 1280 пикселей
Высота : 720 пикселей
Соотношение сторон : 16:9
Режим частоты кадров : Постоянный
Частота кадров : 23,976 (24000/1001) кадра/сек
Цветовое пространство : YUV
Субдискретизация насыщенности : 4:2:0
Битовая глубина : 8 бит
Тип развёртки : Прогрессивная
Бит/(Пиксели*Кадры) : 0.283
Размер потока : 4,39 Гбайт (89%)
Заголовок : RIP | MZMA
Библиотека кодирования : x264 core 152 r2851kMod ba24899
Настройки программы : cabac=1 / ref=9 / deblock=1:-3:-2 / analyse=0x3:0x113 / me=umh / subme=11 / psy=1 / fade_compensate=0.00 / psy_rd=1.00:0.00 / mixed_ref=1 / me_range=48 / chroma_me=1 / trellis=2 / 8x8dct=1 / cqm=0 / deadzone=21,11 / fast_pskip=0 / chroma_qp_offset=-2 / threads=6 / lookahead_threads=1 / sliced_threads=0 / nr=0 / decimate=0 / interlaced=0 / bluray_compat=0 / constrained_intra=0 / bframes=16 / b_pyramid=2 / b_adapt=2 / b_bias=0 / direct=3 / weightb=1 / open_gop=0 / weightp=2 / keyint=240 / keyint_min=23 / scenecut=40 / intra_refresh=0 / rc_lookahead=40 / rc=2pass / mbtree=0 / bitrate=6255 / ratetol=1.0 / qcomp=0.60 / qpmin=0 / qpmax=69 / qpstep=4 / cplxblur=20.0 / qblur=0.5 / vbv_maxrate=50000 / vbv_bufsize=62500 / nal_hrd=none / filler=0 / ip_ratio=1.40 / pb_ratio=1.30 / aq=3:0.90
Язык : English
Default : Да
Forced : Нет
Цветовой диапазон : Limited
Основные цвета : BT.709
Характеристики трансфера : BT.709
Коэффициенты матрицы : BT.709

Аудио #1
Идентификатор : 2
Формат : AC-3
Формат/Информация : Audio Coding 3
Идентификатор кодека : A_AC3
Продолжительность : 1 ч. 42 м.
Вид битрейта : Постоянный
Битрейт : 224 Кбит/сек
Каналы : 2 канала
Расположение каналов : Front: L R
Частота : 48,0 КГц
Частота кадров : 31,250 кадров/сек (1536 SPF)
Битовая глубина : 16 бит
Метод сжатия : С потерями
Размер потока : 164 Мбайт (3%)
Заголовок : DVO | НТВ+, Ж. Никонова, А. Симанов
Язык : Russian
По умолчанию : Да
Принудительно : Нет

Аудио #2
Идентификатор : 3
Формат : AC-3
Формат/Информация : Audio Coding 3
Идентификатор кодека : A_AC3
Продолжительность : 1 ч. 42 м.
Вид битрейта : Постоянный
Битрейт : 192 Кбит/сек
Каналы : 2 канала
Расположение каналов : Front: L R
Частота : 48,0 КГц
Частота кадров : 31,250 кадров/сек (1536 SPF)
Битовая глубина : 16 бит
Метод сжатия : С потерями
Размер потока : 141 Мбайт (3%)
Заголовок : DVO | НТВ+, М. Бакина, А. Войтюк
Язык : Russian
По умолчанию : Нет
Принудительно : Нет

Аудио #3
Идентификатор : 4
Формат : AC-3
Формат/Информация : Audio Coding 3
Идентификатор кодека : A_AC3
Продолжительность : 1 ч. 42 м.
Вид битрейта : Постоянный
Битрейт : 224 Кбит/сек
Каналы : 2 канала
Расположение каналов : Front: L R
Частота : 48,0 КГц
Частота кадров : 31,250 кадров/сек (1536 SPF)
Битовая глубина : 16 бит
Метод сжатия : С потерями
Размер потока : 164 Мбайт (3%)
Заголовок : Original
Язык : English
По умолчанию : Нет
Принудительно : Нет

Текст #1
Идентификатор : 5
Формат : UTF-8
Идентификатор кодека : S_TEXT/UTF8
Идентификатор кодека/Информация : UTF-8 Plain Text
Язык : English
По умолчанию : Нет
Принудительно : Нет

Текст #2
Идентификатор : 6
Формат : UTF-8
Идентификатор кодека : S_TEXT/UTF8
Идентификатор кодека/Информация : UTF-8 Plain Text
Заголовок : SDH
Язык : English
По умолчанию : Нет
Принудительно : Нет

Текст #3
Идентификатор : 7
Формат : UTF-8
Идентификатор кодека : S_TEXT/UTF8
Идентификатор кодека/Информация : UTF-8 Plain Text
Язык : German
По умолчанию : Нет
Принудительно : Нет

Меню
00:00:00.049 : en:Chapter 01
00:03:40.376 : en:Chapter 02
00:07:11.086 : en:Chapter 03
00:09:35.764 : en:Chapter 04
00:13:47.432 : en:Chapter 05
00:18:08.026 : en:Chapter 06
00:21:59.557 : en:Chapter 07
00:24:01.179 : en:Chapter 08
00:33:11.979 : en:Chapter 09
00:36:47.578 : en:Chapter 10
00:40:12.015 : en:Chapter 11
00:42:36.126 : en:Chapter 12
00:47:38.595 : en:Chapter 13
00:51:50.096 : en:Chapter 14
00:54:15.258 : en:Chapter 15
01:00:38.841 : en:Chapter 16
01:05:02.437 : en:Chapter 17
01:12:17.172 : en:Chapter 18
01:15:56.758 : en:Chapter 19
01:20:29.664 : en:Chapter 20
01:22:42.463 : en:Chapter 21
01:26:37.314 : en:Chapter 22
01:31:39.166 : en:Chapter 23
01:35:33.383 : en:Chapter 24
01:38:37.617 : en:Chapter 25
pb.wtf



Скачать Предмет красоты через торрент https://a.radikal.ru/a01/1907/e7/a47a2180feb9.png Скачать фильм Предмет красоты через торрент бесплантно в хорошем качестве Описание: Язвительная, острая комедия об оставшихся без средств супружеской чете, которая решается продать свою самую ценную вещицу — ... 10 10 3
Торрент: Зарегистрирован [2019-07-26 10:25] · скачан: 8 раз
Статус: √ проверено
Размер: 4.94 GB
Как cкачать? Как скачать Предмет красоты через торрент | qTorrent

28-11-2019 20:33  

Отключить всю рекламу на сайте

    Дорогой пользователь! Огромная просьба, поблагодарите релизера, оцените раздачу и оставьте свои комментарий, если Вы скачали Предмет красоты через торрент бесплатно! Внесите свою лепту в развитие PiratBit!
    Комментировать посты могут только пользователи прошедшие не сложную регистрацию
    Показать сообщения:    

    Предмет красоты через торрент
    Скачать бесплатно Предмет красоты
    Предмет красоты скачать торрент
    Предмет красоты смотреть онлайн
    Cкачать фильм Предмет красоты бесплатно
    Предмет красоты скачать торрент в хорошем качестве
    Предмет красоты смотреть онлайн бесплатно в хорошем качестве


    Вы не можете начинать темы
    Вы не можете отвечать на сообщения
    Вы не можете редактировать свои сообщения
    Вы не можете удалять свои сообщения
    Вы не можете голосовать в опросах
    Вы не можете прикреплять файлы к сообщениям
    Вы можете скачивать файлы