Ссылка на приватное зеркало всего за 1$. Внимание количество ограничено!!!

OK

1+1

iTunes

мы

OK

1

WEB-DLRip

Джокер

Пифагор

Ведьмак / The Witcher сериал

Лицензия

ПШазам

ОК

Оно 2

iTunes

30
pack

Вам бонус

ВАЖНО

!!Акция!!

Alien_RageХит недели

RePack

Resident Evil 21

ИГРА 18+

pack

RePack

jed

!!Акция!!

Alien_Rage

RePack

fifa19

RePack

Assassins Creed: Odyssey

RePack

NEED FOR SPEED™ PAYBACK

4 сезон

9 сезон

Бесстыжие 9 сезон

Все сериалы

все сериалы на PB.wtf

RePack

FAR CRY 5
  

Дамбо 3Д / Dumbo 3D (Тим Бёртон) [2019, фэнтези, семейный, BDRip 1080p] [Half OverUnder] DUB (rus, ukr) [Лицензия] pb.wtf

Дамбо 3Д через торрент pb.wtf

Размер: 12.45 GB | Добавлен: 5 мес. 11 д. назад | Торрент скачан:46 раз
Скачать  

26-07-2019 13:02 Дамбо 3Д Скачать торрент  

Дамбо 3Д
Dumbo 3D

«В 2019 году с любимой историей вы подниметесь на новую высоту»

Год выпуска: 2019
Страна: США
Жанр: фэнтези, семейный
Продолжительность: 01:51:57
Перевод: Дублированный | Лицензия
Субтитры:
Вшитые (softsub):
#1 - Русские Форсированные [вер. Ash61] (включены по умолчанию)
#2 - Русские Полные
#3 - Украинские Форсированные [вер. Ash61]
#4 - English Full
#5 - English SDH

Внешние (UTF-8):
#1 - Русские Форсированные [вер. Ash61] (включены по умолчанию)
#2 - Русские Полные
#3 - Украинские Форсированные [вер. Ash61]

Режиссер: Тим Бёртон

rating

В ролях:

Колин Фаррелл (Holt Farrier), Майкл Китон (V. A. Vandevere), Дэнни ДеВито (Max Medici), Ева Грин (Colette Marchant), Алан Аркин (J. Griffin Remington), Нико Паркер (Milly Farrier), Finley Hobbins (Joe Farrier), Рошан Сет (Pramesh Singh), Ларс Айдингер (Hans Brugelbecker), Деобиа Опарей (Rongo), Джозеф Гатт (Neils Skellig), Мигель Муньос Сегура (Ivan the Wonderful)
Описание: Цирковой импресарио Марк Медичи назначает бывшую звезду цирка Холта Фэрриера и его детей Милли и Джо опекунами новорожденного слонёнка, чьи невероятно большие уши сразу становятся предметом для постоянных шуток и насмешек коллег Холта по цеху. Внезапно узнав, что Дамбо умеет летать, владелец цирка решает нажиться на необычных способностях слонёнка. К делу подключается энергичный предприниматель В. А. Вэндевер, который решает сделать из малыша Дамбо главную звезду своего нового грандиозного развлекательного предприятия «Сказочная страна».

Качество: BDRip 1080p
Формат: MKV

Видео: AVC / 1920х1080p / 23,976 fps / 14.0 Mbps
Аудио#1: Русский / AC3 / 48 KHz / 5.1 ch / 640 Kbps (Дубляж - BD CEE)
Аудио#2: Украинский / AC3 / 48 KHz / 5.1 ch / 640 Kbps (Дубляж) (Спасибо Hurtom!)
Аудио#3: Английский / AC3 / 48 KHz / 5.1 ch / 640 Kbps (Original - BD 3D)
Формат 3D: Half OverUnder / Вертикальная анаморфная стереопара
Порядок ракурсов: левый ракурс первый
скриншот  скриншот  скриншот  скриншот  скриншот  

General
Unique ID : 243074632895111902787805060467067682114 (0xB6DE78AF1208FE9E8B8AEF0EA1737D42)
Complete name : J:Dumbo(2019)3D-hOU(Ash61)iTunesDumbo(2019)3D-hOU(Ash61)iTunes.mkv
Format : Matroska
Format version : Version 2
File size : 12.3 GiB
Duration : 1h 51mn
Overall bit rate : 15.7 Mbps
Movie name : Дамбо / Dumbo (2019) in 3D
Encoded date : UTC 2019-07-26 10:54:22
Writing application : mkvmerge v5.8.0 ('No Sleep / Pillow') built on Sep 2 2012 15:37:04
Writing library : libebml v1.2.3 + libmatroska v1.3.0

Video
ID : 1
Format : AVC
Format/Info : Advanced Video Codec
Format profile : High@L4.1
Format settings, CABAC : Yes
Format settings, ReFrames : 4 frames
Codec ID : V_MPEG4/ISO/AVC
Duration : 1h 51mn
Bit rate : 14.0 Mbps
Width : 1 920 pixels
Height : 1 080 pixels
Display aspect ratio : 16:9
Frame rate mode : Constant
Frame rate : 23.976 (24000/1001) fps
Color space : YUV
Chroma subsampling : 4:2:0
Bit depth : 8 bits
Scan type : Progressive
Bits/(Pixel*Frame) : 0.282
Stream size : 10.7 GiB (87%)
Title : BDRip by Ash61
Writing library : x264 core 146 r2538 121396c
Encoding settings : cabac=1 / ref=4 / deblock=1:-3:-3 / analyse=0x3:0x113 / me=umh / subme=10 / psy=1 / psy_rd=1.00:0.00 / mixed_ref=1 / me_range=32 / chroma_me=1 / trellis=2 / 8x8dct=1 / cqm=0 / deadzone=21,11 / fast_pskip=0 / chroma_qp_offset=-2 / threads=12 / lookahead_threads=3 / sliced_threads=0 / nr=0 / decimate=0 / interlaced=0 / bluray_compat=0 / constrained_intra=0 / bframes=10 / b_pyramid=2 / b_adapt=2 / b_bias=0 / direct=3 / weightb=1 / open_gop=0 / weightp=2 / keyint=250 / keyint_min=23 / scenecut=40 / intra_refresh=0 / rc_lookahead=60 / rc=2pass / mbtree=0 / bitrate=14000 / ratetol=1.0 / qcomp=0.70 / qpmin=0 / qpmax=69 / qpstep=4 / cplxblur=20.0 / qblur=0.5 / vbv_maxrate=40000 / vbv_bufsize=30000 / nal_hrd=none / filler=0 / frame-packing=4 / ip_ratio=1.40 / pb_ratio=1.30 / aq=1:0.70
Language : English
Default : Yes
Forced : No

Audio #1
ID : 2
Format : AC-3
Format/Info : Audio Coding 3
Mode extension : CM (complete main)
Format settings, Endianness : Big
Codec ID : A_AC3
Duration : 1h 51mn
Bit rate mode : Constant
Bit rate : 384 Kbps
Channel(s) : 6 channels
Channel positions : Front: L C R, Side: L R, LFE
Sampling rate : 48.0 KHz
Frame rate : 31.250 fps (1536 spf)
Compression mode : Lossy
Stream size : 307 MiB (2%)
Title : Дубляж (iTunes)
Language : Russian
Default : Yes
Forced : No

Audio #2
ID : 3
Format : AC-3
Format/Info : Audio Coding 3
Mode extension : CM (complete main)
Format settings, Endianness : Big
Codec ID : A_AC3
Duration : 1h 51mn
Bit rate mode : Constant
Bit rate : 640 Kbps
Channel(s) : 6 channels
Channel positions : Front: L C R, Side: L R, LFE
Sampling rate : 48.0 KHz
Frame rate : 31.250 fps (1536 spf)
Compression mode : Lossy
Stream size : 512 MiB (4%)
Title : Дубляж
Language : Ukrainian
Default : No
Forced : No

Audio #3
ID : 4
Format : AC-3
Format/Info : Audio Coding 3
Mode extension : CM (complete main)
Format settings, Endianness : Big
Codec ID : A_AC3
Duration : 1h 51mn
Bit rate mode : Constant
Bit rate : 640 Kbps
Channel(s) : 6 channels
Channel positions : Front: L C R, Side: L R, LFE
Sampling rate : 48.0 KHz
Frame rate : 31.250 fps (1536 spf)
Compression mode : Lossy
Stream size : 512 MiB (4%)
Title : Original (BD 3D Eur)
Language : English
Default : No
Forced : No

Text #1
ID : 5
Format : UTF-8
Codec ID : S_TEXT/UTF8
Codec ID/Info : UTF-8 Plain Text
Title : Форсированные [вер. Ash61]
Language : Russian
Default : Yes
Forced : No

Text #2
ID : 6
Format : UTF-8
Codec ID : S_TEXT/UTF8
Codec ID/Info : UTF-8 Plain Text
Title : Полные
Language : Russian
Default : No
Forced : No

Text #3
ID : 7
Format : UTF-8
Codec ID : S_TEXT/UTF8
Codec ID/Info : UTF-8 Plain Text
Title : Форсированные [вер. Ash61]
Language : Ukrainian
Default : No
Forced : No

Text #4
ID : 8
Format : UTF-8
Codec ID : S_TEXT/UTF8
Codec ID/Info : UTF-8 Plain Text
Title : Full
Language : English
Default : No
Forced : No

Text #5
ID : 9
Format : UTF-8
Codec ID : S_TEXT/UTF8
Codec ID/Info : UTF-8 Plain Text
Title : SDH
Language : English
Default : No
Forced : No

Menu
00:00:00.000 : : 1. Casey Jr.'s Back
00:02:49.461 : : 2. Homecoming
00:06:46.072 : : 3. Medici's Investment
00:11:23.766 : : 4. Baby Jumbo
00:16:33.993 : : 5. Welcome to the Circus
00:19:20.493 : : 6. Under the Big Top
00:26:08.233 : : 7. "Baby Mine"
00:27:46.331 : : 8. Goodbye, Mrs. Jumbo
00:31:07.783 : : 9. Magic Feather
00:35:09.024 : : 10. "Fly, Dumbo, Fly!"
00:40:44.984 : : 11. V. A. Vandevere
00:46:44.927 : : 12. Dreamland
00:50:23.938 : : 13. Preparing for Takeoff
00:57:15.265 : : 14. Pink Elephants
01:01:53.126 : : 15. Queen of the Heavens
01:07:18.785 : : 16. Nightmare Island
01:10:11.666 : : 17. Separated Again
01:14:47.858 : : 18. The Troupe Unites
01:18:05.055 : : 19. One Last Time
01:27:55.896 : : 20. The Rescue
01:37:09.532 : : 21. Saying Goodbye
01:39:41.100 : : 22. Anything Is Possible
01:44:02.611 : : 23. End Credits

pb.wtf



Скачать Дамбо 3Д через торрент https://d.radikal.ru/d24/1907/72/66417964e81a.png Скачать фильм Дамбо 3Д через торрент бесплантно в хорошем качестве Описание: Цирковой импресарио Марк Медичи назначает бывшую звезду цирка Холта Фэрриера и его детей Милли и Джо опекунами новорожденного ... 10 10 5
Торрент: Зарегистрирован [2019-08-09 11:12] · скачан: 46 раз
Статус: √ проверено
Размер: 12.45 GB
Как cкачать? Как скачать Дамбо 3Д через торрент | qTorrent

% Раздел Тема Автор DL S | L
3D Фильмы [ 25.15 GB ] Дамбо в 3Д / Dumbo 3D [2019 BDRip 1080p] OverUnder / Вертикальная стереопара serega768 Скачать
1 | 0

28-11-2019 20:33  

Отключить всю рекламу на сайте

    Дорогой пользователь! Огромная просьба, поблагодарите релизера, оцените раздачу и оставьте свои комментарий, если Вы скачали Дамбо 3Д через торрент бесплатно! Внесите свою лепту в развитие PiratBit!
    Комментировать посты могут только пользователи прошедшие не сложную регистрацию
    Показать сообщения:    

    Дамбо 3Д через торрент
    Скачать бесплатно Дамбо 3Д
    Дамбо 3Д скачать торрент
    Дамбо 3Д смотреть онлайн
    Cкачать фильм Дамбо 3Д бесплатно
    Дамбо 3Д скачать торрент в хорошем качестве
    Дамбо 3Д смотреть онлайн бесплатно в хорошем качестве


    Вы не можете начинать темы
    Вы не можете отвечать на сообщения
    Вы не можете редактировать свои сообщения
    Вы не можете удалять свои сообщения
    Вы не можете голосовать в опросах
    Вы не можете прикреплять файлы к сообщениям
    Вы можете скачивать файлы