Ссылка на приватное зеркало всего за 1$. Внимание количество ограничено!!!

OK

1+1

iTunes

мы

OK

1

WEB-DLRip

Джокер

Пифагор

Ведьмак / The Witcher сериал

Лицензия

ПШазам

ОК

Оно 2

iTunes

30
pack

Вам бонус

ВАЖНО

!!Акция!!

Alien_RageХит недели

RePack

Resident Evil 21

ИГРА 18+

pack

RePack

jed

!!Акция!!

Alien_Rage

RePack

fifa19

RePack

Assassins Creed: Odyssey

RePack

NEED FOR SPEED™ PAYBACK

4 сезон

9 сезон

Бесстыжие 9 сезон

Все сериалы

все сериалы на PB.wtf

RePack

FAR CRY 5
  

Покемон. Детектив Пикачу / Pokémon Detective Pikachu (Роб Леттерман) [2019, фантастика, фэнтези, детектив, приключения, семейный, BDRip-HEVC 10bit 1080p, 60fps, Dub, MVO, Original] pb.wtf

Покемон. Детектив Пикачу через торрент pb.wtf

Раздают: 218 [ 4 MB/s ] Качают: 13 [ 651 KB/s ]
Размер: 5.86 GB | Добавлен: 5 мес. 26 д. назад | Торрент скачан:603 раза
Скачать  

26-07-2019 14:01 Покемон. Детектив Пикачу Скачать торрент  

Покемон. Детектив Пикачу / Pokémon Detective Pikachu
Год выпуска: 2019
Страна: США, Япония
Жанр: фантастика, фэнтези, детектив, приключения, семейный
Продолжительность: 01:44:29
Перевод: Дубляж, Профессиональный (многоголосый закадровый)

Режиссер: Роб Леттерман

rating

В ролях: Райан Рейнольдс (Detective Pikachu, озвучка), Джастис Смит (Tim Goodman), Кэтрин Ньютон (Lucy Stevens), Билл Найи (Howard Clifford), Кэн Ватанабэ (Lieutenant Hide Yoshida), Крис Гир (Roger Clifford), Сьюки Уотерхаус (Ms. Norman), Джозетт Саймон (Grams), Алехандро Де Меса (Bartender), Рита Ора (Dr. Ann Laurent), Каран Сони (Jack), Макс Финчман (Young Tim Goodman)

Описание: История начинается с таинственного исчезновения частного детектива экстра- класса Гарри Гудмана, расследовать которое предстоит его 21-летнему сыну Тиму. Помощь в расследовании ему окажет бывший партнер отца, детектив Пикачу - уморительный, остроумный и обаятельный сыщик, который является загадкой даже для себя самого. Обнаружив, что они каким-то фантастическим образом способны общаться друг с другом, Тим и Пикачу объединяют усилия в захватывающем расследовании этой запутанной истории. В погоне за уликами по неоновым улицам Райм Сити - современного разросшегося мегаполиса, где люди и покемоны живут бок о бок в гиперреалистичном мире игрового экшна, - они встречают самых разнообразных покемонов и раскрывают ужасный заговор, который способен разрушить это мирное сосуществование и стать угрозой для всей вселенной покемонов.

Качество: BDRip 1080p
Формат: MKV
Видео кодек: H.265
Аудио кодек: AC3
Видео: HEVC 10 бит, 1920x804 (2.40:1), 6557 kbps, 60,000 fps, 0.071 bpp
Аудио#1: AC3 / 5.1 / 48 kHz / 448 kbps / 16 bit | Дубляж - Русский
Аудио#2: AC3 / 2.0 / 48 kHz / 192 kbps / 16 bit | Профессиональный (многоголосый закадровый) - Русский [СВ Студия]
Аудио#3: AC3 / 2.0 / 48 kHz / 192 kbps / 16 bit | Профессиональный (многоголосый закадровый) - Русский [HDRezka Studio]
Аудио#4: AC3 / 5.1 / 48 kHz / 640 kbps / 16 bit
Субтитры: Русские (Форс., 2 x полные), английские

General
Unique ID : 141491585313795352538998207131486715088 (0x6A7249C1261436D58B40526DB3AEFCD0)
Complete name : D:\Pokemon_Detective_Pikachu_(2019)_BDRip_HEVC_1080p_60fps.mkv
Format : Matroska
Format version : Version 4
File size : 5.86 GiB
Duration : 1 h 44 min
Overall bit rate : 8 034 kb/s
Movie name : Pokemon_Detective_Pikachu_2019_by_Tiberiumsun69
Encoded date : UTC 2019-07-26 13:31:25
Writing application : mkvmerge v35.0.0 ('All The Love In The World') 64-bit
Writing library : libebml v1.3.9 + libmatroska v1.5.2
Cover : Yes
Attachments : Cover.jpg

Video
ID : 1
Format : HEVC
Format/Info : High Efficiency Video Coding
Format profile : Main 10@L4.1@High
Codec ID : V_MPEGH/ISO/HEVC
Duration : 1 h 44 min
Bit rate : 6 557 kb/s
Width : 1 920 pixels
Height : 804 pixels
Display aspect ratio : 2.40:1
Frame rate mode : Constant
Frame rate : 60.000 FPS
Color space : YUV
Chroma subsampling : 4:2:0
Bit depth : 10 bits
Bits/(Pixel*Frame) : 0.071
Stream size : 4.79 GiB (82%)
Writing library : x265 3.1+4-4f6dde51a5db:[Windows][clang 8.0.0][64 bit] 10bit
Encoding settings : cpuid=1111039 / frame-threads=9 / numa-pools=8 / wpp / no-pmode / no-pme / no-psnr / no-ssim / log-level=3 / input-csp=1 / input-res=1920x804 / interlace=0 / total-frames=0 / level-idc=41 / high-tier=1 / uhd-bd=0 / ref=4 / allow-non-conformance / no-repeat-headers / annexb / no-aud / no-hrd / info / hash=0 / no-temporal-layers / open-gop / min-keyint=60 / keyint=600 / gop-lookahead=0 / bframes=9 / b-adapt=2 / b-pyramid / bframe-bias=0 / rc-lookahead=25 / lookahead-slices=4 / scenecut=40 / radl=0 / no-splice / no-intra-refresh / ctu=64 / min-cu-size=8 / rect / no-amp / max-tu-size=32 / tu-inter-depth=1 / tu-intra-depth=1 / limit-tu=0 / rdoq-level=2 / dynamic-rd=0.00 / no-ssim-rd / signhide / no-tskip / nr-intra=0 / nr-inter=0 / no-constrained-intra / strong-intra-smoothing / max-merge=3 / limit-refs=3 / limit-modes / me=3 / subme=3 / merange=57 / temporal-mvp / weightp / no-weightb / no-analyze-src-pics / deblock=-3:-3 / sao / no-sao-non-deblock / rd=4 / no-early-skip / rskip / no-fast-intra / no-tskip-fast / no-cu-lossless / no-b-intra / no-splitrd-skip / rdpenalty=0 / psy-rd=2.00 / psy-rdoq=1.00 / no-rd-refine / no-lossless / cbqpoffs=0 / crqpoffs=0 / rc=crf / crf=18.0 / qcomp=0.60 / qpstep=4 / stats-write=0 / stats-read=0 / vbv-maxrate=50000 / vbv-bufsize=50000 / vbv-init=0.9 / crf-max=30.0 / crf-min=0.0 / ipratio=1.40 / pbratio=1.30 / aq-mode=2 / aq-strength=1.00 / cutree / zone-count=0 / no-strict-cbr / qg-size=32 / no-rc-grain / qpmax=69 / qpmin=0 / no-const-vbv / sar=1 / overscan=0 / videoformat=5 / range=0 / colorprim=2 / transfer=2 / colormatrix=2 / chromaloc=0 / display-window=0cll=0,0 / min-luma=0 / max-luma=1023 / log2-max-poc-lsb=8 / vui-timing-info / vui-hrd-info / slices=1 / no-opt-qp-pps / no-opt-ref-list-length-pps / no-multi-pass-opt-rps / scenecut-bias=0.05 / no-opt-cu-delta-qp / no-aq-motion / no-hdr / no-hdr-opt / no-dhdr10-opt / no-idr-recovery-sei / analysis-reuse-level=5 / scale-factor=0 / refine-intra=0 / refine-inter=0 / refine-mv=0 / refine-ctu-distortion=0 / no-limit-sao / ctu-info=0 / no-lowpass-dct / refine-analysis-type=537542247 / copy-pic=1 / max-ausize-factor=1.0 / no-dynamic-refine / no-single-sei / no-hevc-aq / no-svt / no-field / qp-adaptation-range=1.00
Language : English
Default : Yes
Forced : No
Color range : Limited

Audio #1
ID : 2
Format : AC-3
Format/Info : Audio Coding 3
Commercial name : Dolby Digital
Codec ID : A_AC3
Duration : 1 h 44 min
Bit rate mode : Constant
Bit rate : 448 kb/s
Channel(s) : 6 channels
Channel layout : L R C LFE Ls Rs
Sampling rate : 48.0 kHz
Frame rate : 31.250 FPS (1536 SPF)
Bit depth : 16 bits
Compression mode : Lossy
Stream size : 335 MiB (6%)
Title : Dub [License]
Language : Russian
Service kind : Complete Main
Default : Yes
Forced : Yes

Audio #2
ID : 3
Format : AC-3
Format/Info : Audio Coding 3
Commercial name : Dolby Digital
Codec ID : A_AC3
Duration : 1 h 44 min
Bit rate mode : Constant
Bit rate : 192 kb/s
Channel(s) : 2 channels
Channel layout : L R
Sampling rate : 48.0 kHz
Frame rate : 31.250 FPS (1536 SPF)
Bit depth : 16 bits
Compression mode : Lossy
Stream size : 143 MiB (2%)
Title : MVO [СВ Студия]
Language : Russian
Service kind : Complete Main
Default : No
Forced : No

Audio #3
ID : 4
Format : AC-3
Format/Info : Audio Coding 3
Commercial name : Dolby Digital
Codec ID : A_AC3
Duration : 1 h 44 min
Bit rate mode : Constant
Bit rate : 192 kb/s
Channel(s) : 2 channels
Channel layout : L R
Sampling rate : 48.0 kHz
Frame rate : 31.250 FPS (1536 SPF)
Bit depth : 16 bits
Compression mode : Lossy
Stream size : 143 MiB (2%)
Title : MVO [HDRezka Studio]
Language : Russian
Service kind : Complete Main
Default : No
Forced : No

Audio #4
ID : 5
Format : AC-3
Format/Info : Audio Coding 3
Commercial name : Dolby Digital
Codec ID : A_AC3
Duration : 1 h 44 min
Bit rate mode : Constant
Bit rate : 640 kb/s
Channel(s) : 6 channels
Channel layout : L R C LFE Ls Rs
Sampling rate : 48.0 kHz
Frame rate : 31.250 FPS (1536 SPF)
Bit depth : 16 bits
Compression mode : Lossy
Stream size : 478 MiB (8%)
Title : Original
Language : English
Service kind : Complete Main
Default : No
Forced : No

Text #1
ID : 6
Format : UTF-8
Codec ID : S_TEXT/UTF8
Codec ID/Info : UTF-8 Plain Text
Duration : 50 min 1 s
Bit rate : 1 b/s
Count of elements : 11
Stream size : 567 Bytes (0%)
Title : Forced [License]
Language : Russian
Default : Yes
Forced : Yes

Text #2
ID : 7
Format : UTF-8
Codec ID : S_TEXT/UTF8
Codec ID/Info : UTF-8 Plain Text
Duration : 1 h 43 min
Bit rate : 83 b/s
Count of elements : 1394
Stream size : 63.5 KiB (0%)
Title : Full [License]
Language : Russian
Default : No
Forced : No

Text #3
ID : 8
Format : UTF-8
Codec ID : S_TEXT/UTF8
Codec ID/Info : UTF-8 Plain Text
Duration : 1 h 34 min
Bit rate : 118 b/s
Count of elements : 1797
Stream size : 82.2 KiB (0%)
Title : Full v.2
Language : Russian
Default : No
Forced : No

Text #4
ID : 9
Format : UTF-8
Codec ID : S_TEXT/UTF8
Codec ID/Info : UTF-8 Plain Text
Duration : 1 h 33 min
Bit rate : 66 b/s
Count of elements : 1597
Stream size : 45.5 KiB (0%)
Title : Full
Language : English
Default : No
Forced : No

Text #5
ID : 10
Format : UTF-8
Codec ID : S_TEXT/UTF8
Codec ID/Info : UTF-8 Plain Text
Duration : 1 h 34 min
Bit rate : 77 b/s
Count of elements : 1900
Stream size : 53.8 KiB (0%)
Title : SDH
Language : English
Default : No
Forced : No

Menu
00:00:00.000 : en:Chapter 01
00:06:55.957 : en:Chapter 02
00:15:36.686 : en:Chapter 03
00:24:06.445 : en:Chapter 04
00:31:00.108 : en:Chapter 05
00:40:45.943 : en:Chapter 06
00:49:57.077 : en:Chapter 07
00:59:49.669 : en:Chapter 08
01:09:22.784 : en:Chapter 09
01:16:59.990 : en:Chapter 10
01:23:20.829 : en:Chapter 11
01:30:55.367 : en:Chapter 12
01:35:49.160 : en:Chapter 13
pb.wtf



Скачать Покемон. Детектив Пикачу через торрент https://b.radikal.ru/b41/1907/be/ac6b8677ae01t.jpg Скачать фильм Покемон. Детектив Пикачу через торрент бесплантно в хорошем качестве Описание: История начинается с таинственного исчезновения частного детектива экстра- класса Гарри Гудмана, расследовать которое предстоит ... 9.8 10 13
Info! Золотая раздача, скачанное не засчитывается.
Торрент: Зарегистрирован [2019-07-26 14:01] · скачан: 603 раз
Статус: √ проверено
Размер: 5.86 GB
Как cкачать? Как скачать Покемон. Детектив Пикачу через торрент | qTorrent

% Раздел Тема Автор DL S | L
Фильмы [HD 720p, 1080p] (Хороший звук DUB, MVO) [ 4.12 GB ] Покемон. Пикачу / Pokémon Detective Pikachu [2019 BDRip 720p] DUB [] +2xMVO [СВ Студия HDrezka Studio] bober100 Скачать
6 | 0
Фильмы (Blu-ray, BD-Remux, HDDVD) [ 43.36 GB ] Покемон. Пикачу / Pokémon Detective Pikachu [2019 Blu-ray EUR 1080p] DUB [] bober100 Скачать
2 | 0
Фильмы (HD 720p, 1080p) (48-60 fps) [ 20.92 GB ] Покемон. Пикачу / Pokémon Detective Pikachu [2019 BDRip 1080p 60 fps] [] sheker187 Скачать
2 | 0
3D Фильмы [ 22.53 GB ] Покемон. Пикачу в 3Д / Pokémon Detective Pikachu 3D [2019 семейн BDRip 1080p] OverUnder / Вертикальная стереопара serega768 Скачать
1 | 0
3D Фильмы [ 9.69 GB ] Покемон. Пикачу 3Д / Pokémon Detective Pikachu 3D [2019 BDRip 1080p] [Half OverUnder] DUB [] bober100 Скачать
3 | 0
Фильмы 2019-2020 [DVDrip, WEB-DLRip, HDrip] (DUB, MVO) [ 771 MB ] Покемон. Пикачу / Pokémon Detective Pikachu [2019 BDRip] DUB [] bober100 Скачать
4 | 0
Фильмы 2019-2020 [DVDrip, WEB-DLRip, HDrip] (DUB, MVO) [ 2.18 GB ] Покемон. Пикачу / Pokémon Detective Pikachu [2019 BDRip] DUB [ BD 4K EUR] bober100 Скачать
5 | 0

28-11-2019 20:33  

Отключить всю рекламу на сайте

26-07-2019 14:08 Покемон. Детектив Пикачу Скачать торрент  

Внимание!

Частота видео не 59.940 а 60.000. Удалось полностью избавиться от микрофризов. Видео ужато h.265 . Идти возможно будет не у каждого. Однако мой смартфон (pocophone f1) такое тянет.

P.S. Приятного всем просмотра.pb.wtf



27-07-2019 17:02 Покемон. Детектив Пикачу Скачать торрент  

Кладбище домашних животных 2019 далее.pb.wtf



30-07-2019 08:51 Покемон. Детектив Пикачу Скачать торрент  

нормальный фильмpb.wtf



    Дорогой пользователь! Огромная просьба, поблагодарите релизера, оцените раздачу и оставьте свои комментарий, если Вы скачали Покемон. Детектив Пикачу через торрент бесплатно! Внесите свою лепту в развитие PiratBit!
    Комментировать посты могут только пользователи прошедшие не сложную регистрацию
    Показать сообщения:    

    Покемон. Детектив Пикачу через торрент
    Скачать бесплатно Покемон. Детектив Пикачу
    Покемон. Детектив Пикачу скачать торрент
    Покемон. Детектив Пикачу смотреть онлайн
    Cкачать фильм Покемон. Детектив Пикачу бесплатно
    Покемон. Детектив Пикачу скачать торрент в хорошем качестве
    Покемон. Детектив Пикачу смотреть онлайн бесплатно в хорошем качестве


    Вы не можете начинать темы
    Вы не можете отвечать на сообщения
    Вы не можете редактировать свои сообщения
    Вы не можете удалять свои сообщения
    Вы не можете голосовать в опросах
    Вы не можете прикреплять файлы к сообщениям
    Вы можете скачивать файлы