Ссылка на приватное зеркало всего за 1$. Внимание количество ограничено!!!

OK

1+1

iTunes

мы

OK

1

WEB-DLRip

Джокер

Пифагор

Ведьмак / The Witcher сериал

Лицензия

ПШазам

ОК

Оно 2

iTunes

30
pack

Вам бонус

ВАЖНО

!!Акция!!

Alien_RageХит недели

RePack

Resident Evil 21

ИГРА 18+

pack

RePack

jed

!!Акция!!

Alien_Rage

RePack

fifa19

RePack

Assassins Creed: Odyssey

RePack

NEED FOR SPEED™ PAYBACK

4 сезон

9 сезон

Бесстыжие 9 сезон

Все сериалы

все сериалы на PB.wtf

RePack

FAR CRY 5
  

Человек-муравей и Оса / Ant-Man and the Wasp (Пейтон Рид) [2018, фантастика, боевик, приключения, UHD BDRemux 2160p] DUB [Лицензия] + AVO [М. Чадов] pb.wtf

Человек-муравей и Оса через торрент pb.wtf

Раздают: 1 [ 0 KB/s ]
Размер: 45.21 GB | Добавлен: 5 мес. 25 д. назад | Торрент скачан:20 раз
Скачать  

26-07-2019 16:02 Человек-муравей и Оса Скачать торрент  

Человек-муравей и Оса / Ant-Man and the Wasp«Real heroes. Not actual size»
Год выпуска: 2018
Страна: США
Жанр: фантастика, боевик, приключения
Продолжительность: 01:58:06
Перевод: Дублированный, авторский
Субтитры: русские (forced, full, full v2, SDH, Commentary), английские (full, SDH, Commentary)
Режиссер: Пейтон Рид
В ролях:


Пол Радд (Scott Lang / Ant-Man), Эванджелин Лилли (Hope Van Dyne / Wasp), Майкл Пенья (Luis), Уолтон Гоггинс (Sonny Burch), Бобби Каннавале (Paxton), Джуди Грир (Maggie), Ти-Ай (Dave), Давид Дастмалчян (Kurt), Ханна Джон-Кэймен (Ava / Ghost), Эбби Райдер Фортсон (Cassie), Рэндолл Парк (Jimmy Woo), Мишель Пфайффер (Janet Van Dyne / Wasp)
Описание:
Скотт Лэнг, известный также как Человек-муравей, уже заслужил право оказаться в команде Мстителей. Но желание быть ближе к дочери удерживает его в родном Сан-Франциско - до тех пор, пока доктор Хэнк Пим, создавший когда-то изменяющий размеры своего владельца чудо-костюм, не призывает Скотта присоединиться к новой опасной миссии. А помогать в противостоянии с коварным врагом Человеку-муравью будет новая напарница - Оса.
Рейтинг:

Детям до 13 лет просмотр не желателен
Качество: UHD BDRemux 2160p
Формат: MKV
Видео: MPEG-H HEVC Video / 43941 kbps / 3840x2160 / 23.976 fps / 16:9 / Main 10 Profile 5.1 High / 4:2:0 / 10 bits / HDR / BT.2020 /
Аудио 1: Russian AC3 / 5.1 / 48 kHz / 640 kbps / 16-bit |Dub, Blu-Ray|
Аудио 2: Russian DTS-HD Master Audio / 7.1 / 48 kHz / 4574 kbps / 24-bit (DTS Core: 5.1 / 48 kHz / 1509 kbps / 24-bit) |М. Чадов|
Аудио 3: English Dolby TrueHD/Atmos Audio / 7.1 / 48 kHz / 4746 kbps / 24-bit |original|
Аудио 4: English AC3 Embedded: 5.1 / 48 kHz / 640 kbps |original|
Аудио 5: English AC3 / 2.0 / 48 kHz / 192 kbps |Commentary by Director Peyton Reed|
Навигация по главам: есть

Общее
Уникальный идентификатор : 335423513950883754796437891344806882724 (0xFC58380D90350C5A2A99AAC95A9EADA4)
Полное имя : H:\UHD\Человек-муравей и Оса.2018.UHD.Blu-Ray.Remux.2160p.mkv
Формат : Matroska
Версия формата : Version 4
Размер файла : 45,2 Гбайт
Продолжительность : 1 ч. 58 м.
Режим общего битрейта : Переменный
Общий поток : 54,8 Мбит/сек
Дата кодирования : UTC 2019-01-06 20:16:13
Программа кодирования : mkvmerge v30.1.0 ('Forever And More') 64-bit
Библиотека кодирования : libebml v1.3.6 + libmatroska v1.4.9
Attachments : poster.jpg

Видео
Идентификатор : 1
Формат : HEVC
Формат/Информация : High Efficiency Video Coding
Коммерческое название : HDR10
Профиль формата : Main 10@L5.1@High
Идентификатор кодека : V_MPEGH/ISO/HEVC
Продолжительность : 1 ч. 58 м.
Битрейт : 43,9 Мбит/сек
Ширина : 3840 пикселей
Высота : 2160 пикселей
Соотношение сторон : 16:9
Режим частоты кадров : Постоянный
Частота кадров : 23,976 (24000/1001) кадра/сек
Цветовое пространство : YUV
Субдискретизация насыщенности : 4:2:0 (Type 2)
Битовая глубина : 10 бит
Бит/(Пиксели*Кадры) : 0.221
Размер потока : 36,2 Гбайт (80%)
Библиотека кодирования : ATEME Titan File 3.8.16 (4.8.16.0)
Default : Да
Forced : Нет
Цветовой диапазон : Limited
Основные цвета : BT.2020
Характеристики трансфера : PQ
Коэффициенты матрицы : BT.2020 non-constant
MasteringDisplay_ColorPrimaries : Display P3
MasteringDisplay_Luminance : min: 0.0001 cd/m2, max: 1000 cd/m2

Аудио #1
Идентификатор : 2
Формат : AC-3
Формат/Информация : Audio Coding 3
Коммерческое название : Dolby Digital
Идентификатор кодека : A_AC3
Продолжительность : 1 ч. 58 м.
Вид битрейта : Постоянный
Битрейт : 640 Кбит/сек
Каналы : 6 каналов
Channel layout : L R C LFE Ls Rs
Частота : 48,0 КГц
Частота кадров : 31,250 кадров/сек (1536 SPF)
Битовая глубина : 16 бит
Метод сжатия : С потерями
Размер потока : 541 Мбайт (1%)
Заголовок : Dub, Blu-Ray
Язык : Russian
ServiceKind/String : Complete Main
Default : Да
Forced : Нет

Аудио #2
Идентификатор : 3
Формат : DTS XLL
Формат/Информация : Digital Theater Systems
Коммерческое название : DTS-HD Master Audio
Идентификатор кодека : A_DTS
Продолжительность : 1 ч. 58 м.
Вид битрейта : Переменный
Битрейт : 4574 Кбит/сек
Каналы : 8 каналов
Channel layout : C L R LFE Lb Rb Lss Rss
Частота : 48,0 КГц
Частота кадров : 93,750 кадра/сек (512 SPF)
Битовая глубина : 24 бит
Метод сжатия : Без потерь
Размер потока : 3,78 Гбайт (8%)
Заголовок : М. Чадов
Язык : Russian
Default : Нет
Forced : Нет

Аудио #3
Идентификатор : 4
Формат : MLP FBA 16-ch
Формат/Информация : Meridian Lossless Packing FBA with 16-channel presentation
Коммерческое название : Dolby TrueHD with Dolby Atmos
Идентификатор кодека : A_TRUEHD
Продолжительность : 1 ч. 58 м.
Вид битрейта : Переменный
Битрейт : 4746 Кбит/сек
Максимальный битрейт : 7335 Кбит/сек
Каналы : 8 каналов
Channel layout : L R C LFE Ls Rs Lb Rb
Частота : 48,0 КГц
Частота кадров : 1200,000 кадров/сек (40 SPF)
Метод сжатия : Без потерь
Размер потока : 3,92 Гбайт (9%)
Язык : English
Default : Нет
Forced : Нет
Number of dynamic objects : 13
Bed channel count : 1 канал
Bed channel configuration : LFE

Аудио #4
Идентификатор : 5
Формат : AC-3
Формат/Информация : Audio Coding 3
Коммерческое название : Dolby Digital
Идентификатор кодека : A_AC3
Продолжительность : 1 ч. 58 м.
Вид битрейта : Постоянный
Битрейт : 640 Кбит/сек
Каналы : 6 каналов
Channel layout : L R C LFE Ls Rs
Частота : 48,0 КГц
Частота кадров : 31,250 кадров/сек (1536 SPF)
Битовая глубина : 16 бит
Метод сжатия : С потерями
Размер потока : 541 Мбайт (1%)
Язык : English
ServiceKind/String : Complete Main
Default : Нет
Forced : Нет

Аудио #5
Идентификатор : 6
Формат : AC-3
Формат/Информация : Audio Coding 3
Коммерческое название : Dolby Digital
Идентификатор кодека : A_AC3
Продолжительность : 1 ч. 58 м.
Вид битрейта : Постоянный
Битрейт : 192 Кбит/сек
Каналы : 2 канала
Channel layout : L R
Частота : 48,0 КГц
Частота кадров : 31,250 кадров/сек (1536 SPF)
Битовая глубина : 16 бит
Метод сжатия : С потерями
Размер потока : 162 Мбайт (0%)
Заголовок : Commentary by Director Peyton Reed
Язык : English
ServiceKind/String : Complete Main
Default : Нет
Forced : Нет

Текст #1
Идентификатор : 7
Формат : UTF-8
Идентификатор кодека : S_TEXT/UTF8
Идентификатор кодека/Информация : UTF-8 Plain Text
Продолжительность : 1 ч. 54 м.
Битрейт : 1 бит/сек
ElementCount : 27
Размер потока : 1,18 Кбайт (0%)
Заголовок : forced
Язык : Russian
Default : Да
Forced : Нет

Текст #2
Идентификатор : 8
Формат : UTF-8
Идентификатор кодека : S_TEXT/UTF8
Идентификатор кодека/Информация : UTF-8 Plain Text
Продолжительность : 1 ч. 57 м.
Битрейт : 88 бит/сек
ElementCount : 1781
Размер потока : 76,0 Кбайт (0%)
Заголовок : full
Язык : Russian
Default : Нет
Forced : Нет

Текст #3
Идентификатор : 9
Формат : UTF-8
Идентификатор кодека : S_TEXT/UTF8
Идентификатор кодека/Информация : UTF-8 Plain Text
Продолжительность : 1 ч. 50 м.
Битрейт : 113 бит/сек
ElementCount : 2064
Размер потока : 92,3 Кбайт (0%)
Заголовок : full v2
Язык : Russian
Default : Нет
Forced : Нет

Текст #4
Идентификатор : 10
Формат : UTF-8
Идентификатор кодека : S_TEXT/UTF8
Идентификатор кодека/Информация : UTF-8 Plain Text
Продолжительность : 1 ч. 57 м.
Битрейт : 104 бит/сек
ElementCount : 2152
Размер потока : 90,0 Кбайт (0%)
Заголовок : SDH
Язык : Russian
Default : Нет
Forced : Нет

Текст #5
Идентификатор : 11
Формат : UTF-8
Идентификатор кодека : S_TEXT/UTF8
Идентификатор кодека/Информация : UTF-8 Plain Text
Продолжительность : 1 ч. 57 м.
Битрейт : 219 бит/сек
ElementCount : 2388
Размер потока : 190 Кбайт (0%)
Заголовок : Commentary by Director Peyton Reed
Язык : Russian
Default : Нет
Forced : Нет

Текст #6
Идентификатор : 12
Формат : UTF-8
Идентификатор кодека : S_TEXT/UTF8
Идентификатор кодека/Информация : UTF-8 Plain Text
Продолжительность : 1 ч. 50 м.
Битрейт : 64 бит/сек
ElementCount : 1926
Размер потока : 52,2 Кбайт (0%)
Заголовок : full
Язык : English
Default : Нет
Forced : Нет

Текст #7
Идентификатор : 13
Формат : UTF-8
Идентификатор кодека : S_TEXT/UTF8
Идентификатор кодека/Информация : UTF-8 Plain Text
Продолжительность : 1 ч. 57 м.
Битрейт : 67 бит/сек
ElementCount : 2133
Размер потока : 57,9 Кбайт (0%)
Заголовок : SDH
Язык : English
Default : Нет
Forced : Нет

Текст #8
Идентификатор : 14
Формат : UTF-8
Идентификатор кодека : S_TEXT/UTF8
Идентификатор кодека/Информация : UTF-8 Plain Text
Продолжительность : 1 ч. 57 м.
Битрейт : 130 бит/сек
ElementCount : 2402
Размер потока : 113 Кбайт (0%)
Заголовок : Commentary by Director Peyton Reed
Язык : English
Default : Нет
Forced : Нет

Меню
00:00:00.000 : en:Prologue
00:04:03.034 : en:World's Greatest Grandma
00:10:16.407 : en:"Easy Peasy"
00:13:39.860 : en:Quantum Entanglement
00:21:25.450 : en:Kitchen Conflict
00:29:07.829 : en:Bill Foster
00:36:09.083 : en:Student Body
00:40:56.579 : en:Molecular Disequilibrium
00:50:17.431 : en:Truth Serum
00:58:59.077 : en:Help From Janet
01:04:56.434 : en:Partners
01:12:54.286 : en:Misdirection
01:18:32.124 : en:San Francisco Car Chase
01:24:44.913 : en:Giant-Man
01:29:47.340 : en:The Quantum Void
01:36:16.270 : en:Extraction
01:43:35.334 : en:Happy Endings
01:46:59.830 : en:End Credits
Перевод Михаила Чадова доступен благодаря: stimco. Работа со звуком stimco.
pb.wtf



Скачать Человек-муравей и Оса через торрент https://d.radikal.ru/d10/1907/f8/e58837251f7b.png Скачать фильм Человек-муравей и Оса через торрент бесплантно в хорошем качестве Описание: Скотт Лэнг, известный также как Человек-муравей, уже заслужил право оказаться в команде Мстителей. Но желание быть ближе к дочери ... 10 10 2
Торрент: Зарегистрирован [2019-07-26 16:02] · скачан: 20 раз
Статус: √ проверено
Размер: 45.21 GB
Как cкачать? Как скачать Человек-муравей и Оса через торрент | qTorrent

% Раздел Тема Автор DL S | L
Фильмы 2018 [DVDrip, WEB-DLRip, HDrip] (DUB, MVO) [ 2.76 GB ] Человек-муравей и Оса / Ant-Man and the Wasp [2018 WEBRip-AVC Dub AVO][Open Matte] от ExKinoRay morfyi Скачать
4 | 0
Ultra HD (UHD: 2K, 4K, 8K) — видео сверхвысокой чёткости [ 49.92 GB ] Человек-муравей и Оса / Ant-Man and the Wasp [2018 UHD Blu-ray 2160p] DUB [] sheker187 Скачать
1 | 0
Фильмы 2018 [DVDrip, WEB-DLRip, HDrip] (DUB, MVO) [ 1.45 GB ] Человек-муравей и Оса / Ant-Man and the Wasp [2018 BDRip-AVC] - [] - ExKinoRay Enigma2010 Скачать
9 | 0
Ultra HD (UHD: 2K, 4K, 8K) — видео сверхвысокой чёткости [ 22.96 GB ] Человек-муравей и Оса / Ant-Man and the Wasp [2018 UHD BDRip 2160p] [SDR] AVO+DUB [] bober100 Скачать
2 | 0
Фильмы (HD 720p, 1080p) (48-60 fps) [ 6.89 GB ] Человек-муравей и Оса / Ant-Man and the Wasp [2018 BDRip 720p 60 fps от еnvy / NNNB] DUB | еnvy Скачать
31 | 3
Ultra HD (UHD: 2K, 4K, 8K) — видео сверхвысокой чёткости [ 12.32 GB ] Человек-муравей и Оса / Ant-Man and the Wasp [2018 UHD BDRip 2160p] [SDR] DUB [] sheker187 Скачать
2 | 0
Фильмы [HD 720p, 1080p] (Хороший звук DUB, MVO) [ 3.65 GB ] Человек-муравей и Оса / Ant-Man and the Wasp [2018 BDRip-HEVC 1080p ] DUB [] bober100 Скачать
1 | 0

28-11-2019 20:33  

Отключить всю рекламу на сайте

    Дорогой пользователь! Огромная просьба, поблагодарите релизера, оцените раздачу и оставьте свои комментарий, если Вы скачали Человек-муравей и Оса через торрент бесплатно! Внесите свою лепту в развитие PiratBit!
    Комментировать посты могут только пользователи прошедшие не сложную регистрацию
    Показать сообщения:    

    Человек-муравей и Оса через торрент
    Скачать бесплатно Человек-муравей и Оса
    Человек-муравей и Оса скачать торрент
    Человек-муравей и Оса смотреть онлайн
    Cкачать фильм Человек-муравей и Оса бесплатно
    Человек-муравей и Оса скачать торрент в хорошем качестве
    Человек-муравей и Оса смотреть онлайн бесплатно в хорошем качестве


    Вы не можете начинать темы
    Вы не можете отвечать на сообщения
    Вы не можете редактировать свои сообщения
    Вы не можете удалять свои сообщения
    Вы не можете голосовать в опросах
    Вы не можете прикреплять файлы к сообщениям
    Вы можете скачивать файлы