Всегда рабочее зеркало без VPN и Proxy просто перед .vidak.icu напиши любое слово или цифру, Пример http://80z0.vidak.icu

MVO

2 сезон

2 сезон

1

1 сезон

iTunes

2 сезон

13

1 сезон

Распродажа

pack

Рекомендуем

Пиратка

30

ВАЖНО

RePack

MK11

RePack

jed

RePack

fifa19

RePack

RDR2

RePack

NEED FOR SPEED™ PAYBACK

Кинопоиск HD

6 сезон

 Острые козырьки 6 сезон

Все сериалы

все сериалы на PB.wtf

RePack

FAR CRY 5

Anonymous, нам критически не хватает 5601 руб. на оплату серверов и переферии за Апрель, помоги нам пожалуйста, вся надежда только на тебя. В благодарность мы отключим тебе всю рекламу на сайте!

×
  
Magnet ссылка

Предельное удовольствие / The Ultimate Pleasure (Carlos Tobalina) [1977 г., Classic sex, Feature, DVDRip-AVC, Оригинал] pb.wtf

Предельное удовольствие через торрент pb.wtf

Размер: 1.21 GB | Добавлен: 2 года 9 мес. назад | Торрент скачан:319 раз
Смотреть онлайн Предельное удовольствие | Скачать    Ребята, помогите собрать деньги на оплату серверов!!!

26-07-2019 17:42 Предельное удовольствие Скачать торрент  

Предельное удовольствие / The Ultimate PleasureГод выпуска: 1977
Страна: США
Жанр: Classic sex, Feature
Продолжительность: 01:10:54
Перевод: оригинал (английский)
Субтитры: отсутствуют

Студия: Diamond Films
Режиссер: Carlos Tobalina
В ролях: Candida Royalle, Blair Harris, Annette Haven, Sandy Pinney, Paul Thomas, Jeff Lyle, John Holmes, Mimi Zuber, Nina Fause, Vicky Lindsay, Kristine Heller, Iris Medina

Описание: Таксист у которого проблемы в браке, с его красивой, но фригидной супругой находит дипломат полный денег, который оставил в его машине пассажир. Теперь он понимает, что он имеет средства, чтобы выполнять все свои и своей жены сексуальные фантазии...

Качество: DVDRip-AVC
Формат: MKV
Видео кодек: AVC
Аудио кодек: AC3
Видео: 856x480@720x480 (16:9), 29.970 fps ~ 2250 Kbps
Аудио: 48 KHz, 1 ch ~ 192 Kb/s (английский)
скриншот   скриншот   скриншот   скриншот   скриншот   скриншот  

скриншот   скриншот  

Общее
Уникальный идентификатор : 230424545486735129802999969669193036370 (0xAD5A27389ADA8D9CF42D8D293B527252)
Полное имя : C:\Temp\The Ultimate Pleasure (1977).mkv
Формат : Matroska
Версия формата : Version 2
Размер файла : 1,21 Гбайт
Продолжительность : 1 ч. 10 м.
Общий поток : 2445 Кбит/сек
Название фильма : The Ultimate Pleasure (1977) [rarelust.com]
Программа кодирования : HandBrake 0.10.1 2015030800
Библиотека кодирования : Lavf55.12.0

Видео
Идентификатор : 1
Формат : AVC
Формат/Информация : Advanced Video Codec
Профиль формата : Main@L3.1
Параметр CABAC формата : Да
Параметр ReFrames формата : 8 кадров
Идентификатор кодека : V_MPEG4/ISO/AVC
Продолжительность : 1 ч. 10 м.
Битрейт : 2250 Кбит/сек
Ширина : 720 пикселей
Высота : 480 пикселей
Соотношение сторон : 16:9
Соотношение сторон в оригинале : 16:9
Частота кадров : 29,970 кадров/сек
Стандарт вещания : NTSC
Цветовое пространство : YUV
Субдискретизация насыщенности : 4:2:0
Битовая глубина : 8 бит
Тип развёртки : Прогрессивная
Бит/(Пиксели*Кадры) : 0.217
Размер потока : 1,09 Гбайт (90%)
Библиотека кодирования : x264 core 142 r2479 dd79a61
Настройки программы : cabac=1 / ref=8 / deblock=1:0:0 / analyse=0x1:0x131 / me=umh / subme=9 / psy=1 / psy_rd=1.00:0.00 / mixed_ref=1 / me_range=16 / chroma_me=1 / trellis=2 / 8x8dct=0 / cqm=0 / deadzone=21,11 / fast_pskip=1 / chroma_qp_offset=-2 / threads=12 / lookahead_threads=1 / sliced_threads=0 / nr=0 / decimate=1 / interlaced=0 / bluray_compat=0 / constrained_intra=0 / bframes=3 / b_pyramid=2 / b_adapt=2 / b_bias=0 / direct=3 / weightb=1 / open_gop=0 / weightp=2 / keyint=300 / keyint_min=30 / scenecut=40 / intra_refresh=0 / rc_lookahead=60 / rc=2pass / mbtree=1 / bitrate=2250 / ratetol=1.0 / qcomp=0.60 / qpmin=0 / qpmax=69 / qpstep=4 / cplxblur=20.0 / qblur=0.5 / vbv_maxrate=14000 / vbv_bufsize=14000 / nal_hrd=none / filler=0 / ip_ratio=1.40 / aq=1:1.00
Язык : English
Default : Да
Forced : Нет
Основные цвета : BT.601-6 525, BT.1358 525, BT.1700 NTSC, SMPTE 170M
Характеристики трансфера : BT.709-5, BT.1361
Коэффициенты матрицы : BT.601-6 525, BT.1358 525, BT.1700 NTSC, SMPTE 170M

Аудио
Идентификатор : 2
Формат : AC-3
Формат/Информация : Audio Coding 3
Расширение режима : CM (complete main)
Идентификатор кодека : A_AC3
Продолжительность : 1 ч. 10 м.
Вид битрейта : Постоянный
Битрейт : 192 Кбит/сек
Каналы : 1 канал
Расположение каналов : Front: C
Частота : 48,0 КГц
Битовая глубина : 16 бит
Метод сжатия : С потерями
Задержка видео : 1 м. 5 с.
Размер потока : 97,4 Мбайт (8%)
Заголовок : Mono
Язык : English
Default : Да
Forced : Нет

Меню
00:00:00.000 : :Chapter 1
00:20:06.272 : :Chapter 2
00:39:18.423 : :Chapter 3
00:55:34.398 : :Chapter 4

pb.wtf



pack Скачать Предельное удовольствие через торрент https://pic1.kartinco.top/images/12/e4bxb.jpg Скачать, смотреть онлайн Предельное удовольствие бесплантно в хорошем качестве Описание: Таксист у которого проблемы в браке, с его красивой, но фригидной супругой находит дипломат полный денег, который оставил в его ... 9.4 10 10
Info! Золотая раздача, скачанное не засчитывается.
Торрент: Зарегистрирован [2019-07-26 17:42] · скачан: 319 раз
Статус: √ проверено
Размер: 1.21 GB
Как cкачать? Как скачать Предельное удовольствие через торрент | UTorrent

28-11-2019 20:33  

Отключить всю рекламу на сайте

26-07-2019 17:58 Предельное удовольствие Скачать торрент  

Топик был перенесен из форума Полнометражные порно фильмы в форум Классические порно фильмы


Скорпион1976pb.wtf



pack
    Дорогой пользователь! Огромная просьба, поблагодарите релизера, оцените раздачу и оставьте свои комментарий, если Вы скачали Предельное удовольствие через торрент бесплатно!
    Комментировать посты могут только пользователи прошедшие не сложную регистрацию
    Показать сообщения:    

    Предельное удовольствие через торрент
    Скачать бесплатно Предельное удовольствие
    Предельное удовольствие скачать торрент
    Предельное удовольствие смотреть онлайн
    Cкачать фильм Предельное удовольствие бесплатно
    Предельное удовольствие скачать торрент в хорошем качестве
    Предельное удовольствие смотреть онлайн бесплатно в хорошем качестве


    Вы не можете начинать темы
    Вы не можете отвечать на сообщения
    Вы не можете редактировать свои сообщения
    Вы не можете удалять свои сообщения
    Вы не можете голосовать в опросах
    Вы не можете прикреплять файлы к сообщениям
    Вы можете скачивать файлы