Ссылка на приватное зеркало всего за 1$. Внимание количество ограничено!!!

iTunes

1+1

iTunes

мы

WEB-DL

1

iTunes

Чернобыль

iTunes

Ральф против интернета

Лицензия

ПШазам

Лицензия

Оно 2

Лицензия

30
pack

Вам бонус

ВАЖНО

!!Акция!!

Alien_RageХит недели

RePack

Resident Evil 21

ИГРА 18+

pack

RePack

jed

!!Акция!!

Alien_Rage

RePack

fifa19

RePack

Assassins Creed: Odyssey

RePack

NEED FOR SPEED™ PAYBACK

3 сезон

9 сезон

Бесстыжие 9 сезон

Все сериалы

все сериалы на PB.wtf

RePack

FAR CRY 5
Ребята, катастрофически не хватает 1900р. для оплаты серверов за Октябрь (всвязи с блокировками трафик упал в 3 раза), 1-2р., выручайте.
  

Та еще парочка / Long Shot (Джонатан Левин) [2019, мелодрама, комедия, BDRip-AVC] DUB [iTunes] - ExKinoRay pb.wtf

Та еще парочка через торрент pb.wtf

Раздают: 1506 [ 23 MB/s ] Качают: 42 [ 20 MB/s ]
Размер: 2.48 GB | Добавлен: 4 мес. 17 д. назад | Торрент скачан:765 раз
Скачать  

26-07-2019 23:02 Та еще парочка Скачать торрент  

Название: Та еще парочка
Оригинальное название: Long Shot
Год выпуска: 2019
Жанр: Мелодрама, комедия
Режиссер: Джонатан Левин
В ролях: Шарлиз Терон, Сет Роген, Джун Рафаэль, О`Ши Джексон мл., Рави Патель, Боб Оденкёрк, Энди Серкис, Рэндолл Парк, Тристан Д. Лалла, Александр Скарсгард

Описание: Шарлотта Филд — одна из самых влиятельных бизнесвумен планеты. Целеустремленная, умная, обворожительная, она хороша в любом деле, за которое берется. Фред Фларски — талантливый, но эксцентричный и склонный к саморазрушению журналист. У них нет ничего общего кроме того, что она — его первая любовь. И вот спустя годы они случайно встречаются вновь. Фред очаровывает Шарлотту, и она неожиданно для всех (и для самой себя) нанимает его в качестве спичрайтера для своей предвыборной кампании… Их воссоединение запускает цепочку головокружительно нелепых и опасных событий мирового масштаба.

rating

Страна: США
Студия: AG Studios, Denver and Delilah Productions, Good Universe
Продолжительность: 02:04:56
Перевод: Дублированный | iTunes

Формат: MKV
Качество: BDRip-AVC |Long.Shot.2019.1080p.BluRay.REMUX.AVC.DTS-HD.MA.TrueHD.7.1.Atmos-FGT|
Видео: MPEG-4 AVC, 1024x428 (2.40:1), 23.976 fps, 2010 Kbps, 0.191 bit/pixel
Аудио #01: 48 kHz, AC3, 5.1, 384 Kbps | iTunes | RUS |
Аудио #02: 48 kHz, AC3, 5.1, 448 Kbps | Оригинал | ENG |
Субтитры: Английские
General
Unique ID : 229329368212930374574471433007826393759 (0xAC873AD0091294B1B230575038DADA9F)
Complete name : F:\Long.Shot.2019.BDrip.AVC.ExKinoRay.mkv
Format : Matroska
Format version : Version 2
File size : 2.48 GiB
Duration : 2 h 4 min
Overall bit rate : 2 844 kb/s
Movie name : Long Shot 2019 from ExKinoRay
Encoded date : UTC 2019-07-26 20:48:12
Writing application : mkvmerge v5.6.0 ('Kenya Kane') built on May 27 2012 16:44:04
Writing library : libebml v1.2.3 + libmatroska v1.3.0

Video
ID : 1
Format : AVC
Format/Info : Advanced Video Codec
Format profile : High@L4.1
Format settings, CABAC : Yes
Format settings, ReFrames : 12 frames
Codec ID : V_MPEG4/ISO/AVC
Duration : 2 h 4 min
Bit rate : 2 010 kb/s
Width : 1 024 pixels
Height : 428 pixels
Display aspect ratio : 2.40:1
Frame rate mode : Constant
Frame rate : 23.976 (23976/1000) FPS
Color space : YUV
Chroma subsampling : 4:2:0
Bit depth : 8 bits
Scan type : Progressive
Bits/(Pixel*Frame) : 0.191
Stream size : 1.71 GiB (69%)
Title : Enigma
Writing library : x264 core 152 r2851 ba24899
Encoding settings : cabac=1 / ref=12 / deblock=1:-2:-2 / analyse=0x3:0x113 / me=umh / subme=10 / psy=1 / psy_rd=0.98:0.05 / mixed_ref=1 / me_range=32 / chroma_me=1 / trellis=2 / 8x8dct=1 / cqm=0 / deadzone=21,11 / fast_pskip=0 / chroma_qp_offset=-3 / threads=12 / lookahead_threads=3 / sliced_threads=0 / nr=0 / decimate=0 / interlaced=0 / bluray_compat=0 / constrained_intra=0 / bframes=10 / b_pyramid=2 / b_adapt=2 / b_bias=0 / direct=3 / weightb=1 / open_gop=0 / weightp=2 / keyint=240 / keyint_min=23 / scenecut=40 / intra_refresh=0 / rc=2pass / mbtree=0 / bitrate=2010 / ratetol=1.0 / qcomp=0.60 / qpmin=0 / qpmax=51 / qpstep=4 / cplxblur=20.0 / qblur=0.5 / ip_ratio=1.30 / pb_ratio=1.20 / aq=3:0.80
Language : English
Default : Yes
Forced : No
Color range : Limited
Color primaries : BT.709
Transfer characteristics : BT.709
Matrix coefficients : BT.709

Audio #1
ID : 2
Format : AC-3
Format/Info : Audio Coding 3
Mode extension : CM (complete main)
Format settings, Endianness : Big
Codec ID : A_AC3
Duration : 2 h 4 min
Bit rate mode : Constant
Bit rate : 384 kb/s
Channel(s) : 6 channels
Channel positions : Front: L C R, Side: L R, LFE
Sampling rate : 48.0 kHz
Frame rate : 31.250 FPS (1536 spf)
Compression mode : Lossy
Stream size : 343 MiB (14%)
Title : iTunes
Language : Russian
Default : Yes
Forced : No

Audio #2
ID : 3
Format : AC-3
Format/Info : Audio Coding 3
Mode extension : CM (complete main)
Format settings, Endianness : Big
Codec ID : A_AC3
Duration : 2 h 4 min
Bit rate mode : Constant
Bit rate : 448 kb/s
Channel(s) : 6 channels
Channel positions : Front: L C R, Side: L R, LFE
Sampling rate : 48.0 kHz
Frame rate : 31.250 FPS (1536 spf)
Compression mode : Lossy
Stream size : 400 MiB (16%)
Language : English
Default : No
Forced : No

Text
ID : 4
Format : UTF-8
Codec ID : S_TEXT/UTF8
Codec ID/Info : UTF-8 Plain Text
Language : English
Default : No
Forced : No

Menu
00:00:00.000 : en:Chapter 01
00:05:03.553 : en:Chapter 02
00:16:45.170 : en:Chapter 03
00:27:26.561 : en:Chapter 04
00:31:23.047 : en:Chapter 05
00:40:15.913 : en:Chapter 06
00:45:13.043 : en:Chapter 07
00:54:02.489 : en:Chapter 08
01:02:53.811 : en:Chapter 09
01:12:46.153 : en:Chapter 10
01:17:51.833 : en:Chapter 11
01:26:25.805 : en:Chapter 12
01:33:33.441 : en:Chapter 13
01:40:49.418 : en:Chapter 14
01:50:57.776 : en:Chapter 15
01:54:25.942 : en:Chapter 16


Релиз от:

Автор релиза: pb.wtf



Скачать Та еще парочка через торрент https://a.radikal.ru/a24/1907/00/547a45cfecad.png Скачать фильм Та еще парочка через торрент бесплантно в хорошем качестве Описание: Шарлотта Филд — одна из самых влиятельных бизнесвумен планеты. Целеустремленная, умная, обворожительная, она хороша в любом ... 9.8 10 14
Info! Золотая раздача, скачанное не засчитывается.
Торрент: Зарегистрирован [2019-07-26 23:02] · скачан: 765 раз
Статус: √ проверено
Размер: 2.48 GB
Как cкачать? Как скачать Та еще парочка через торрент | qTorrent

28-11-2019 20:33  

Отключить всю рекламу на сайте

    Дорогой пользователь! Огромная просьба, поблагодарите релизера, оцените раздачу и оставьте свои комментарий, если Вы скачали Та еще парочка через торрент бесплатно! Внесите свою лепту в развитие PiratBit!
    Комментировать посты могут только пользователи прошедшие не сложную регистрацию
    Показать сообщения:    

    Та еще парочка через торрент
    Скачать бесплатно Та еще парочка
    Та еще парочка скачать торрент
    Та еще парочка смотреть онлайн
    Cкачать фильм Та еще парочка бесплатно
    Та еще парочка скачать торрент в хорошем качестве
    Та еще парочка смотреть онлайн бесплатно в хорошем качестве


    Вы не можете начинать темы
    Вы не можете отвечать на сообщения
    Вы не можете редактировать свои сообщения
    Вы не можете удалять свои сообщения
    Вы не можете голосовать в опросах
    Вы не можете прикреплять файлы к сообщениям
    Вы можете скачивать файлы