Ссылка на приватное зеркало нашего сайта всего за 1$. Внимание количество ограничено!!!

2 сезон

iTunes

1 сезон

1

2 сезон

2 сезон

iTunes

1 сезон

RePack

30

Новинка

ВАЖНО

ИГРА 18+

pack

RePack

MK11
pack

Забери бонус

RePack

jed

!!Акция!!

Alien_Rage

RePack

fifa19

RePack

Assassins Creed: Odyssey

RePack

NEED FOR SPEED™ PAYBACK

4 сезон

9 сезон

Бесстыжие 9 сезон

Все сериалы

все сериалы на PB.wtf

RePack

FAR CRY 5
  

Последняя любовь Казановы / Dernier amour (Бенуа Жако) [2019, история, мелодрама, WEB-DL 1080p] MVO [iTunes] pb.wtf

Последняя любовь Казановы через торрент pb.wtf

Размер: 3.37 GB | Добавлен: 1 год 4 мес. назад | Торрент скачан:108 раз
Скачать  

27-07-2019 04:15 Последняя любовь Казановы Скачать торрент  

Последняя любовь Казановы / Dernier amour
Год выпуска: 2019
Страна: Франция
Жанр: история, мелодрама
Продолжительность: 01:38:05
Перевод: Профессиональный многоголосый | iTunes
Субтитры: Русские

Режиссер: Бенуа Жако

rating

В ролях: Венсан Линдон, Стэйси Мартин, Валерия Голино, Джулия Рой, Нэнси Тейт, Анна Коттис, Хейли Кармайкл, Кристиан Эриксон, Нэйтан Уиллкокс, Джесутасан Антонитасан

Описание: После очередного любовного скандала легендарный покоритель женских сердец Казанова, азартный игрок и неутомимый искатель удовольствий, вынужден бежать из Парижа в Лондон. В этом незнакомом, охваченном пороком городе он встречает юную куртизанку Марианну де Шарпийон. Чтобы добиться ее расположения, великий соблазнитель готов на все, но сумасбродная красавица всякий раз ускользает из объятий венецианца. Она сводит Казанову с ума, утверждая, что станет его, как только тот перестанет ее желать...

Качество: WEB-DL 1080p
Формат: MKV

Видео: MPEG-4 AVC, 4534 Kбит/с, 1920x800
Аудио: AC3, 48.0 KHz, 6 ch, 384 Kbps
скриншот  скриншот  скриншот  скриншот  скриншот  

Общее
Формат : Matroska
Версия формата : Version 4 / Version 2
Размер файла : 3,37 Гбайт
Продолжительность : 1 ч. 38 м.
Общий поток : 4920 Кбит/сек
Название фильма : Dernier amour (2019) WEB-DL 1080p -BLUEBIRD
Дата кодирования : UTC 2019-07-28 08:52:35
Программа кодирования : mkvmerge v34.0.0 ('Sight and Seen') 64-bit
Библиотека кодирования : libebml v1.3.7 + libmatroska v1.5.0

Видео
Идентификатор : 1
Формат : AVC
Формат/Информация : Advanced Video Codec
Профиль формата : High@L4
Параметр CABAC формата : Да
Параметр ReFrames формата : 5 кадров
Идентификатор кодека : V_MPEG4/ISO/AVC
Продолжительность : 1 ч. 38 м.
Битрейт : 4534 Кбит/сек
Ширина : 1920 пикселей
Высота : 800 пикселей
Соотношение сторон : 2,40:1
Режим частоты кадров : Постоянный
Частота кадров : 24,000 кадра/сек
Цветовое пространство : YUV
Субдискретизация насыщенности : 4:2:0
Битовая глубина : 8 бит
Тип развёртки : Прогрессивная
Бит/(Пиксели*Кадры) : 0.123
Размер потока : 3,11 Гбайт (92%)
Заголовок : WEB-DL
Язык : English
Default : Да
Forced : Нет
Цветовой диапазон : Limited
Основные цвета : BT.709
Характеристики трансфера : BT.709
Коэффициенты матрицы : BT.709

Аудио
Идентификатор : 2
Формат : AC-3
Формат/Информация : Audio Coding 3
Расширение режима : CM (complete main)
Параметр Endianness формата : Big
Идентификатор кодека : A_AC3
Продолжительность : 1 ч. 38 м.
Вид битрейта : Постоянный
Битрейт : 384 Кбит/сек
Каналы : 6 каналов
Расположение каналов : Front: L C R, Side: L R, LFE
Частота : 48,0 КГц
Частота кадров : 31,250 кадров/сек (1536 spf)
Битовая глубина : 16 бит
Метод сжатия : С потерями
Размер потока : 269 Мбайт (8%)
Заголовок : MVO iTunes
Язык : Russian
Default : Да
Forced : Нет

Текст
Идентификатор : 3
Формат : UTF-8
Идентификатор кодека : S_TEXT/UTF8
Идентификатор кодека/Информация : UTF-8 Plain Text
Продолжительность : 1 ч. 34 м.
Битрейт : 56 бит/сек
Count of elements : 961
Размер потока : 38,7 Кбайт (0%)
Заголовок : full
Язык : Russian
Default : Нет
Forced : Нет

Меню
00:00:00.000 : en:Chapter 01
00:08:55.791 : en:Chapter 02
00:18:16.457 : en:Chapter 03
00:26:16.998 : en:Chapter 04
00:34:21.623 : en:Chapter 05
00:45:10.039 : en:Chapter 06
00:54:10.622 : en:Chapter 07
01:03:42.330 : en:Chapter 08
01:10:48.955 : en:Chapter 09
01:19:04.913 : en:Chapter 10
01:28:21.829 : en:Chapter 11

pb.wtf



Скачать Последняя любовь Казановы через торрент https://b.radikal.ru/b40/1907/5e/4668b893f156.jpg Скачать фильм Последняя любовь Казановы через торрент бесплантно в хорошем качестве Описание: После очередного любовного скандала легендарный покоритель женских сердец Казанова, азартный игрок и неутомимый искатель ... 10 10 8
Торрент: Зарегистрирован [2019-07-28 13:41] · скачан: 108 раз
Статус: √ проверено
Размер: 3.37 GB
Как cкачать? Как скачать Последняя любовь Казановы через торрент | qTorrent

% Раздел Тема Автор DL S | L
Фильмы 2019-2020 [DVDrip, WEB-DLRip, HDrip] (DUB, MVO) [ 1.5 GB ] Последняя любовь Казановы / Dernier amour [2019 история WEB-DLRip-AVC] MVO - ExKinoRay Enigma2010 Скачать
1 | 0
Фильмы 2019-2020 [DVDrip, WEB-DLRip, HDrip] (DUB, MVO) [ 1.46 GB ] Последняя любовь Казановы / Dernier amour [2019 история WEB-DLRip] MVO bober100 Скачать
1 | 0

28-11-2019 20:33  

Отключить всю рекламу на сайте

    Дорогой пользователь! Огромная просьба, поблагодарите релизера, оцените раздачу и оставьте свои комментарий, если Вы скачали Последняя любовь Казановы через торрент бесплатно! Внесите свою лепту в развитие PiratBit!
    Комментировать посты могут только пользователи прошедшие не сложную регистрацию
    Показать сообщения:    

    Последняя любовь Казановы через торрент
    Скачать бесплатно Последняя любовь Казановы
    Последняя любовь Казановы скачать торрент
    Последняя любовь Казановы смотреть онлайн
    Cкачать фильм Последняя любовь Казановы бесплатно
    Последняя любовь Казановы скачать торрент в хорошем качестве
    Последняя любовь Казановы смотреть онлайн бесплатно в хорошем качестве


    Вы не можете начинать темы
    Вы не можете отвечать на сообщения
    Вы не можете редактировать свои сообщения
    Вы не можете удалять свои сообщения
    Вы не можете голосовать в опросах
    Вы не можете прикреплять файлы к сообщениям
    Вы можете скачивать файлы