2 сезон

iTunes

MVO

1

2 сезон

iTunes

iTunes

1 сезон

RePack

30

Ultimate

ВАЖНО

ИГРА 18+

pack

RePack

MK11
pack

Легкие деньги

RePack

jed

RePack

fifa19

RePack

RDR2

RePack

NEED FOR SPEED™ PAYBACK

4 сезон

9 сезон

Бесстыжие 9 сезон

Все сериалы

все сериалы на PB.wtf

RePack

FAR CRY 5

Anonymous, доброй ночи, мы не успеваем собрать деньги на оплату серверов за декабрь и январь, помогите нам пожалуйста в это трудное время. В качестве благодарности мы отключим Вам всю рекламу на сайте (укажите свой ник в строку Ваше имя)!

×
  
Magnet ссылка

Дамбо в 3Д / Dumbo 3D (Тим Бёртон / Tim Burton) [2019, фэнтези, семейный, BDRip, 1080p] OverUnder / Вертикальная стереопара (лицензия) pb.wtf

Дамбо в 3Д через торрент pb.wtf

Размер: 25.15 GB | Добавлен: 1 год 5 мес. назад | Торрент скачан:9 раз
Скачать  

27-07-2019 15:35 Дамбо в 3Д Скачать торрент  

Дамбо / Dumbo

Год выпуска: 2019
Страна: США (Walt Disney Pictures, Tim Burton Productions, Infinite Detective, Secret Machine Entertainment)
Жанр: фэнтези, семейный
Продолжительность: 01:51:57

Перевод: Профессиональный дублированный(лицензия)
Русские субтитры: нет
Режиссер: Тим Бёртон / Tim Burton

В ролях: Колин Фаррелл, Майкл Китон, Дэнни ДеВито, Ева Грин, Алан Аркин, Нико Паркер, Finley Hobbins, Рошан Сет, Ларс Айдингер, Деобиа Опарей

Описание: Цирковой импресарио Макс Медичи назначает бывшую звезду цирка Холта Фэрриера и его детей Милли и Джо опекунами новорожденного слонёнка, чьи невероятно большие уши сразу становятся предметом для постоянных шуток и насмешек коллег Холта по цеху. Внезапно узнав, что Дамбо умеет летать, владелец цирка решает нажиться на необычных способностях слонёнка. К делу подключается энергичный предприниматель В. А. Вэндевер, который решает сделать из малыша Дамбо главную звезду своего нового грандиозного развлекательного предприятия «Сказочная страна».

Сэмпл: http://sendfile.su/1512603

Качество: BDrip, 1080p
Контейнер: MKV
Формат 3D: OverUnder / Вертикальная стереопара
Порядок ракурсов: левый ракурс первый
Видео кодек: x264
Аудио кодек: AC3
Видео: AVC / High@L5.0 / 23,976 fps / 1920х2160 / 30,2 Мбит/сек
Аудио: Русский / AC3 / 48 KHz / 5.1 ch / 640 Кбит/сек(лицензия)
Аудио 2: Английский / AC3 / 48 KHz / 5.1 ch / 640 Кбит/сек

ВНИМАНИЕ ! На встроенных ТВ-плеерах работать не будет!!!

ТВ Samsung в названии которого есть надпись Ultra HD , и LG Ultra HD 800 серии, LG C6P, Xiaomi Mi TV 2 воспроизводят полные стереопары встроенными плеерами
Железные плееры на которых воспроизводятся полные стереопары:Popcorn C-200 , Dune HD Smart D1 , Dune HD DUO , Dune HD Smart H1 , Dune HD Smart B1 , Dune HD Max , Dune HD TV-303D, Dune HD TV-102, Dune HD Base 3D, Philips HMP7001, Aura HD, MECOOL BB2
Чтобы изображение было на весь экран в плеере выставляем, если рип 1920х1600 - то выставляем 2.35:1 , если 1920х2160 - то выставляем 16:9

24.08.2019. Релиз обновлён. Русская звуковая дорожка iTunes заменена на лицензию.
Желающие, скачайте заново торрент-файл.
Общее
Уникальный идентификатор : 209730530447735961603133043577796445808 (0x9DC8A1819FADA7829639A588B0604670)
Полное имя : E:\видео\Dumbo.Rip by SeRoGa00.mkv
Формат : Matroska
Версия формата : Version 2
Размер файла : 25,0 Гбайт
Продолжительность : 1 ч. 52 м.
Общий поток : 31,8 Мбит/сек
Дата кодирования : UTC 2019-07-29 12:13:45
Программа кодирования : mkvmerge v3.4.0 ('Rapunzel') сборка от May 15 2010 09:38:20
Библиотека кодирования : libebml v0.8.0 + libmatroska v0.9.0

Видео
Идентификатор : 1
Формат : AVC
Формат/Информация : Advanced Video Codec
Профиль формата : High@L5.0
Параметр CABAC формата : Да
Параметр ReFrames формата : 4 кадра
Идентификатор кодека : V_MPEG4/ISO/AVC
Продолжительность : 1 ч. 52 м.
Битрейт : 30,2 Мбит/сек
Ширина : 1920 пикселей
Высота : 2160 пикселей
Соотношение сторон : 0,889
Частота кадров : 23,976 кадра/сек
Цветовое пространство : YUV
Субдискретизация насыщенности : 4:2:0
Битовая глубина : 8 бит
Тип развёртки : Прогрессивная
Бит/(Пиксели*Кадры) : 0.304
Размер потока : 23,7 Гбайт (95%)
Заголовок : Rip by SeRoGa00
Библиотека кодирования : x264 core 155 r2901 7d0ff22
Настройки программы : cabac=1 / ref=4 / deblock=1:-3:-3 / analyse=0x3:0x113 / me=umh / subme=10 / psy=1 / psy_rd=1.00:0.15 / mixed_ref=1 / me_range=24 / chroma_me=1 / trellis=2 / 8x8dct=1 / cqm=0 / deadzone=21,11 / fast_pskip=1 / chroma_qp_offset=-3 / threads=18 / lookahead_threads=6 / sliced_threads=0 / nr=0 / decimate=0 / interlaced=0 / bluray_compat=0 / constrained_intra=0 / bframes=10 / b_pyramid=2 / b_adapt=2 / b_bias=0 / direct=3 / weightb=1 / open_gop=0 / weightp=2 / keyint=250 / keyint_min=23 / scenecut=40 / intra_refresh=0 / rc_lookahead=60 / rc=crf / mbtree=1 / crf=16.5 / qcomp=0.60 / qpmin=10 / qpmax=69 / qpstep=4 / vbv_maxrate=40000 / vbv_bufsize=40000 / crf_max=0.0 / nal_hrd=none / filler=0 / ip_ratio=1.40 / aq=1:1.00
Язык : English
Default : Нет
Forced : Нет

Аудио #1
Идентификатор : 2
Формат : AC-3
Формат/Информация : Audio Coding 3
Расширение режима : CM (complete main)
Параметр Endianness формата : Big
Идентификатор кодека : A_AC3
Продолжительность : 1 ч. 52 м.
Вид битрейта : Постоянный
Битрейт : 640 Кбит/сек
Каналы : 6 каналов
Расположение каналов : Front: L C R, Side: L R, LFE
Частота : 48,0 КГц
Битовая глубина : 16 бит
Метод сжатия : С потерями
Размер потока : 308 Мбайт (1%)
Язык : Russian
Default : Нет
Forced : Нет

Аудио #2
Идентификатор : 3
Формат : AC-3
Формат/Информация : Audio Coding 3
Расширение режима : CM (complete main)
Параметр Endianness формата : Big
Идентификатор кодека : A_AC3
Продолжительность : 1 ч. 52 м.
Вид битрейта : Постоянный
Битрейт : 640 Кбит/сек
Каналы : 6 каналов
Расположение каналов : Front: L C R, Side: L R, LFE
Частота : 48,0 КГц
Битовая глубина : 16 бит
Метод сжатия : С потерями
Размер потока : 513 Мбайт (2%)
Язык : English
Default : Да
Forced : Нет

Меню #1
00:00:00.000 : en:00:00:00.000
00:02:49.461 : en:00:02:49.461
00:06:46.072 : en:00:06:46.072
00:11:23.766 : en:00:11:23.766
00:16:33.993 : en:00:16:33.993
00:19:20.493 : en:00:19:20.493
00:26:08.233 : en:00:26:08.233
00:27:46.331 : en:00:27:46.331
00:31:07.783 : en:00:31:07.783
00:35:09.024 : en:00:35:09.024
00:40:44.984 : en:00:40:44.984
00:46:44.927 : en:00:46:44.927
00:50:23.938 : en:00:50:23.938
00:57:15.265 : en:00:57:15.265
01:01:53.126 : en:01:01:53.126
01:07:18.785 : en:01:07:18.785
01:10:11.666 : en:01:10:11.666
01:14:47.858 : en:01:14:47.858
01:18:05.055 : en:01:18:05.055
01:27:55.896 : en:01:27:55.896
01:37:09.532 : en:01:37:09.532
01:39:41.100 : en:01:39:41.100
01:44:02.611 : en:01:44:02.611

Меню #2
00:00:00.000 : en:00:00:00.000
00:02:49.461 : en:00:02:49.461
00:06:46.072 : en:00:06:46.072
00:11:23.766 : en:00:11:23.766
00:16:33.993 : en:00:16:33.993
00:19:20.493 : en:00:19:20.493
00:26:08.233 : en:00:26:08.233
00:27:46.331 : en:00:27:46.331
00:31:07.783 : en:00:31:07.783
00:35:09.024 : en:00:35:09.024
00:40:44.984 : en:00:40:44.984
00:46:44.927 : en:00:46:44.927
00:50:23.938 : en:00:50:23.938
00:57:15.265 : en:00:57:15.265
01:01:53.126 : en:01:01:53.126
01:07:18.785 : en:01:07:18.785
01:10:11.666 : en:01:10:11.666
01:14:47.858 : en:01:14:47.858
01:18:05.055 : en:01:18:05.055
01:27:55.896 : en:01:27:55.896
01:37:09.532 : en:01:37:09.532
01:39:41.100 : en:01:39:41.100
01:44:02.611 : en:01:44:02.611
скриншот  

скриншот  

скриншот  

скриншот  

скриншот  

скриншот  

скриншот  

скриншот  
pb.wtf



Скачать Дамбо в 3Д через торрент https://a.radikal.ru/a11/1907/d7/7915d47b0157.png Скачать фильм Дамбо в 3Д через торрент бесплантно в хорошем качестве Описание: Цирковой импресарио Макс Медичи назначает бывшую звезду цирка Холта Фэрриера и его детей Милли и Джо опекунами новорожденного ... 10 10 1
Торрент: Зарегистрирован [2019-08-24 15:05] · скачан: 9 раз
Статус: √ проверено
Размер: 25.15 GB
Как cкачать? Как скачать Дамбо в 3Д через торрент | UTorrent



Последний раз редактировалось: serega768 (2019-08-24 15:05), всего редактировалось 1 раз

28-11-2019 20:33  

Отключить всю рекламу на сайте


    Дорогой пользователь! Огромная просьба, поблагодарите релизера, оцените раздачу и оставьте свои комментарий, если Вы скачали Дамбо в 3Д через торрент бесплатно! Внесите свою лепту в развитие PiratBit!
    Комментировать посты могут только пользователи прошедшие не сложную регистрацию
    Показать сообщения:    

    Дамбо в 3Д через торрент
    Скачать бесплатно Дамбо в 3Д
    Дамбо в 3Д скачать торрент
    Дамбо в 3Д смотреть онлайн
    Cкачать фильм Дамбо в 3Д бесплатно
    Дамбо в 3Д скачать торрент в хорошем качестве
    Дамбо в 3Д смотреть онлайн бесплатно в хорошем качестве


    Вы не можете начинать темы
    Вы не можете отвечать на сообщения
    Вы не можете редактировать свои сообщения
    Вы не можете удалять свои сообщения
    Вы не можете голосовать в опросах
    Вы не можете прикреплять файлы к сообщениям
    Вы можете скачивать файлы