Всегда рабочее зеркало без VPN и Proxy просто перед .vidak.icu напиши любое слово или цифру, Пример http://i42n.vidak.icu

MVO

2 сезон

1 сезон

1

1 сезон

iTunes

2 сезон

13

1 сезон

Распродажа

pack

Рекомендуем

Пиратка

30

ВАЖНО

RePack

MK11

RePack

jed

RePack

fifa19

RePack

RDR2

RePack

NEED FOR SPEED™ PAYBACK

Кинопоиск HD

6 сезон

 Острые козырьки 6 сезон

Все сериалы

все сериалы на PB.wtf

RePack

FAR CRY 5

Anonymous, нам критически не хватает 5601 руб. на оплату серверов и переферии за Апрель, помоги нам пожалуйста, вся надежда только на тебя. В благодарность мы отключим тебе всю рекламу на сайте!

×
  
Magnet ссылка

Пираты Карибского моря: Мертвецы не рассказывают сказки / Pirates of the Caribbean: Dead Men Tell No Tales (Хоаким Роннинг, Эспен Сандберг) [2017, фэнтези, боевик, комедия, UHD BDRemux 2160p] DUB [Лицензия] + 2xAVO pb.wtf

Пираты Карибского моря: Мертвецы не рассказывают сказки через торрент pb.wtf

Раздают: 1 [ 0 KB/s ]
Размер: 67.61 GB | Добавлен: 2 года 9 мес. назад | Торрент скачан:115 раз
Смотреть онлайн Пираты Карибского моря: Мертвецы не рассказывают сказки | Скачать    Ребята, помогите собрать деньги на оплату серверов!!!

27-07-2019 15:38 Пираты Карибского моря: Мертвецы не рассказывают сказки Скачать торрент  

Пираты Карибского моря: Мертвецы не рассказывают сказкиPirates of the Caribbean: Dead Men Tell No Tales«Все пираты должны умереть»
Год выпуска: 2017
Страна: США
Жанр: фэнтези, боевик, комедия, приключения
Продолжительность: 02:09:07
Перевод: Дублированный, авторский
Субтитры: русские (forced, full), английские (full, SDH)
Режиссер: Хоаким Роннинг , Эспен Сандберг

В ролях:

Джонни Депп (Captain Jack Sparrow), Хавьер Бардем (Captain Salazar), Джеффри Раш (Captain Hector Barbossa), Брентон Туэйтс (Henry Turner), Кая Скоделарио (Carina Smyth), Кевин МакНэлли (Gibbs), Голшифте Фарахани (Shansa), Дэвид Уэнэм (Scarfield), Стивен Грэм (Scrum), Энгус Барнетт (Mullroy), Мартин Клебба (Marty), Адам Браун (Cremble)
Описание:
Исчерпавший свою удачу капитан Джек Воробей обнаруживает, что за ним охотится его старый неприятель, ужасный капитан Салазар и его призрачные пираты. Они только что сбежали из Дьявольского треугольника и намерены уничтожить всех пиратов, включая Джека. Поможет спастись лишь могущественный артефакт - трезубец Посейдона, который дарует своему обладателю полный контроль над морями.
Рейтинг:

MPAA: PG-13 - Детям до 13 лет просмотр не желателен
Качество: UHD BDRemux 2160p
Формат: MKV
Видео: MPEG-H HEVC Video / 48134 kbps / 3840x2160 / 23.976 fps / 16:9 / Main 10 @ Level 5.1 @ High / 4:2:0 / 10 bits / HDR10 / BT.2020 /
Аудио 1: Russian AC3 / 5.1 / 48 kHz / 640 kbps / 24 bits |Dub, Blu-Ray|
Аудио 2: Russian DTS-HD Master Audio / 7.1 / 48 kHz / 5694 kbps / 24 bits (DTS Core: 5.1 / 48 kHz / 1509 kbps / 24 bits) |Dub, Custom|
Аудио 3: Russian DTS-HD Master Audio / 7.1 / 48 kHz / 5603 kbps / 24 bits (DTS Core: 5.1 / 48 kHz / 1509 kbps / 24 bits) |Ю. Живов|
Аудио 4: Russian DTS-HD Master Audio / 7.1 / 48 kHz / 5592 kbps / 24 bits (DTS Core: 5.1 / 48 kHz / 1509 kbps / 24 bits) |Ю. Сербин|
Аудио 5: English Dolby Atmos/TrueHD Audio / 7.1-Atmos / 48 kHz / 9558 kbps / 24-bit |original|
Аудио 6: English AC3 Core: 5.1 / 48 kHz / 640 kbps |original|
Навигация по главам: есть

Это пятая часть серии фильмов «Пираты Карибского моря». Режиссерами фильма выступили Хоаким Роннинг и Эспен Сандберг, ранее не принимавших участия в работе над данной франшизой. Стоит отметить тот факт, что Роннинг и Сандберг уже работали вместе, режиссируя сериал «Марко Поло», который, в свою очередь, показал весьма неплохие результаты.
Выход фильма, изначально планировавшийся в 2015 году, из-за проблем со сценарием и бюджетных вопросов был отложен сначала до 2016, а затем до 2017 года.
Съёмки начались в Австралии в феврале 2015 года после того, как правительство Австралии предложило студии Disney около 20 миллионов долларов налоговых льгот.
Фильм снят в форматах Disney Digital 3D, RealD 3D, и IMAX 3D.
Это первое появления Орландо Блума в «пиратах» за 10 лет после «Пираты Карибского моря: На краю света».
На роль возлюбленной Брентона Туэйтеса рассматривали Люси Бойнтон, Габриэллу Уайлд, Дженну Тиам, Каю Скоделарио и Александру Доулинг. В результате было решено утвердить Скоделарио.
Во время съёмок в Австралии Джонни Депп повредил руку, после чего вернулся в США.
Кира Найтли заявила, что не собирается возвращаться во франшизу, она также добавила, что съёмки во франшизе были прекрасным периодом, однако это отняло у неё 5 лет жизни, и она просто не видит себя снова в той же роли.
В одном из интервью Орландо Блум назвал будущий фильм «мягкой перезагрузкой» предыдущих частей франшизы.
На роль режиссёра фильма рассматривались кандидатуры Фредрика Бонда, Тима Бёртона, Альфонсо Куарона, Шона Леви, Сэма Рэйми, Руперта Сандерса и Криса Вайца.
Единственными актёрами, снявшимися во всех частях франшизы, стали Джонни Депп, Джеффри Раш и Кевин МакНэлли.
На роль Генри рассматривались Энсела Эльгорта, Брентона Туэйтса, Тэрона Эджертона, Джорджа МакКея и Сэма Кили. В итоге было решено утвердить Туэйтеса.
Франшиза о пиратах Карибского моря занимает 12-ю строчку в списке самых кассовых в истории.
Дэвид Уэнэм, в роли Скарфилда, и Орландо Блум, исполнитель роли Уилла Тёрнера, ранее снимались двух фильмах трилогии «Властелин колец». Уэнэм сыграл Фарамира, а Блум — Леголаса в фильмах «Властелин колец: Две крепости» и «Властелин колец: Возвращение Короля».
Дэвид Уэнэм ранее снимался с Джонни Деппом в фильме «Джонни Д.».
Джонни Депп и Хавьер Бардем вместе сыграли в фильме «Пока не наступит ночь».
Общее
Уникальный идентификатор : 159443293286804162332910786792416539074 (0x77F3A94AC742B6582C802CA9270AF1C2)
Полное имя : H:\UHD\Пираты Карибского моря Мертвецы не рассказывают сказки.2017.UHD.Blu-Ray.Remux.2160p.mkv
Формат : Matroska
Версия формата : Version 4
Размер файла : 67,6 Гбайт
Продолжительность : 2 ч. 9 м.
Режим общего битрейта : Переменный
Общий поток : 75,0 Мбит/сек
Дата кодирования : UTC 2019-07-27 12:37:21
Программа кодирования : mkvmerge v35.0.0 ('All The Love In The World') 64-bit
Библиотека кодирования : libebml v1.3.9 + libmatroska v1.5.2
Attachments : poster.jpg

Видео
Идентификатор : 1
Формат : HEVC
Формат/Информация : High Efficiency Video Coding
Профиль формата : Main 10@L5.1@High
HDR_Format/String : SMPTE ST 2086, HDR10 compatible
Идентификатор кодека : V_MPEGH/ISO/HEVC
Продолжительность : 2 ч. 9 м.
Битрейт : 47,8 Мбит/сек
Ширина : 3840 пикселей
Высота : 2160 пикселей
Соотношение сторон : 16:9
Режим частоты кадров : Постоянный
Частота кадров : 23,976 (24000/1001) кадра/сек
Цветовое пространство : YUV
Субдискретизация насыщенности : 4:2:0 (Type 2)
Битовая глубина : 10 бит
Бит/(Пиксели*Кадры) : 0.240
Размер потока : 43,1 Гбайт (64%)
Default : Да
Forced : Нет
Цветовой диапазон : Limited
Основные цвета : BT.2020
Характеристики трансфера : PQ
Коэффициенты матрицы : BT.2020 non-constant
MasteringDisplay_ColorPrimaries : Display P3
MasteringDisplay_Luminance : min: 0.0050 cd/m2, max: 1000 cd/m2

Аудио #1
Идентификатор : 2
Формат : AC-3
Формат/Информация : Audio Coding 3
Коммерческое название : Dolby Digital
Идентификатор кодека : A_AC3
Продолжительность : 2 ч. 9 м.
Вид битрейта : Постоянный
Битрейт : 640 Кбит/сек
Каналы : 6 каналов
ChannelLayout : L R C LFE Ls Rs
Частота : 48,0 КГц
Частота кадров : 31,250 кадров/сек (1536 SPF)
Битовая глубина : 16 бит
Метод сжатия : С потерями
Размер потока : 591 Мбайт (1%)
Заголовок : Dub, Blu-Ray
Язык : Russian
ServiceKind/String : Complete Main
Default : Да
Forced : Нет

Аудио #2
Идентификатор : 3
Формат : DTS XLL
Формат/Информация : Digital Theater Systems
Коммерческое название : DTS-HD Master Audio
Идентификатор кодека : A_DTS
Продолжительность : 2 ч. 9 м.
Вид битрейта : Переменный
Битрейт : 5694 Кбит/сек
Каналы : 8 каналов
ChannelLayout : C L R LFE Lb Rb Lss Rss
Частота : 48,0 КГц
Частота кадров : 93,750 кадра/сек (512 SPF)
Битовая глубина : 24 бит
Метод сжатия : Без потерь
Размер потока : 5,13 Гбайт (8%)
Заголовок : Dub, Custom
Язык : Russian
Default : Нет
Forced : Нет

Аудио #3
Идентификатор : 4
Формат : DTS XLL
Формат/Информация : Digital Theater Systems
Коммерческое название : DTS-HD Master Audio
Идентификатор кодека : A_DTS
Продолжительность : 2 ч. 9 м.
Вид битрейта : Переменный
Битрейт : 5603 Кбит/сек
Каналы : 8 каналов
ChannelLayout : C L R LFE Lb Rb Lss Rss
Частота : 48,0 КГц
Частота кадров : 93,750 кадра/сек (512 SPF)
Битовая глубина : 24 бит
Метод сжатия : Без потерь
Размер потока : 5,05 Гбайт (7%)
Заголовок : Ю. Живов
Язык : Russian
Default : Нет
Forced : Нет

Аудио #4
Идентификатор : 5
Формат : DTS XLL
Формат/Информация : Digital Theater Systems
Коммерческое название : DTS-HD Master Audio
Идентификатор кодека : A_DTS
Продолжительность : 2 ч. 9 м.
Вид битрейта : Переменный
Битрейт : 5592 Кбит/сек
Каналы : 8 каналов
ChannelLayout : C L R LFE Lb Rb Lss Rss
Частота : 48,0 КГц
Частота кадров : 93,750 кадра/сек (512 SPF)
Битовая глубина : 24 бит
Метод сжатия : Без потерь
Размер потока : 5,04 Гбайт (7%)
Заголовок : Ю. Сербин
Язык : Russian
Default : Нет
Forced : Нет

Аудио #5
Идентификатор : 6
Формат : MLP FBA 16-ch
Формат/Информация : Meridian Lossless Packing FBA with 16-channel presentation
Коммерческое название : Dolby TrueHD with Dolby Atmos
Идентификатор кодека : A_TRUEHD
Продолжительность : 2 ч. 9 м.
Вид битрейта : Переменный
Битрейт : 8918 Кбит/сек
Максимальный битрейт : 11,9 Мбит/сек
Каналы : 8 каналов
ChannelLayout : L R C LFE Ls Rs Lb Rb
Частота : 48,0 КГц
Частота кадров : 1200,000 кадров/сек (40 SPF)
Метод сжатия : Без потерь
Размер потока : 8,04 Гбайт (12%)
Язык : English
Default : Нет
Forced : Нет
NumberOfDynamicObjects : 13
BedChannelCount/String : 1 канал
BedChannelConfiguration : LFE

Аудио #6
Идентификатор : 7
Формат : AC-3
Формат/Информация : Audio Coding 3
Коммерческое название : Dolby Digital
Идентификатор кодека : A_AC3
Продолжительность : 2 ч. 9 м.
Вид битрейта : Постоянный
Битрейт : 640 Кбит/сек
Каналы : 6 каналов
ChannelLayout : L R C LFE Ls Rs
Частота : 48,0 КГц
Частота кадров : 31,250 кадров/сек (1536 SPF)
Битовая глубина : 16 бит
Метод сжатия : С потерями
Размер потока : 591 Мбайт (1%)
Язык : English
ServiceKind/String : Complete Main
Default : Нет
Forced : Нет

Текст #1
Идентификатор : 8
Формат : UTF-8
Идентификатор кодека : S_TEXT/UTF8
Идентификатор кодека/Информация : UTF-8 Plain Text
Продолжительность : 1 ч. 17 м.
Битрейт : 1 бит/сек
ElementCount : 12
Размер потока : 641 байт (0%)
Заголовок : forced
Язык : Russian
Default : Да
Forced : Нет

Текст #2
Идентификатор : 9
Формат : UTF-8
Идентификатор кодека : S_TEXT/UTF8
Идентификатор кодека/Информация : UTF-8 Plain Text
Продолжительность : 1 ч. 59 м.
Битрейт : 71 бит/сек
ElementCount : 1318
Размер потока : 62,8 Кбайт (0%)
Заголовок : full
Язык : Russian
Default : Нет
Forced : Нет

Текст #3
Идентификатор : 10
Формат : UTF-8
Идентификатор кодека : S_TEXT/UTF8
Идентификатор кодека/Информация : UTF-8 Plain Text
Продолжительность : 1 ч. 55 м.
Битрейт : 45 бит/сек
ElementCount : 1435
Размер потока : 38,2 Кбайт (0%)
Заголовок : full
Язык : English
Default : Нет
Forced : Нет

Текст #4
Идентификатор : 11
Формат : UTF-8
Идентификатор кодека : S_TEXT/UTF8
Идентификатор кодека/Информация : UTF-8 Plain Text
Продолжительность : 2 ч. 7 м.
Битрейт : 48 бит/сек
ElementCount : 1772
Размер потока : 45,8 Кбайт (0%)
Заголовок : SDH
Язык : English
Default : Нет
Forced : Нет

Меню
00:00:00.000 : :Father's Curse
00:05:49.557 : :"Arrest Him"
00:08:34.263 : :Captain Salazar
00:13:40.861 : :"Stop That Witch"
00:16:29.196 : :Runaway Bank
00:22:33.894 : :Bad Luck
00:25:19.309 : :"Hidden in the Stairs"
00:28:06.142 : :"We Are Free"
00:31:41.816 : :Blood Moon
00:33:44.856 : :"Looking For A Pirate"
00:37:02.094 : :Barbossa's Treasure
00:42:27.753 : :"Final Words"
00:49:09.112 : :"Cordiality"
00:54:00.320 : :Bluffing
00:57:19.436 : :"Closer Than You Think"
01:00:38.760 : :Salazar's Story
01:08:29.980 : :Mutiny
01:11:57.062 : :Ghost Sharks
01:16:50.981 : :"Unscratchable Itch"
01:19:27.512 : :Wedding Day
01:25:04.849 : :"Just Believe Her"
01:27:42.215 : :"So You're An Orphan"
01:31:43.831 : :"Nowhere To Hide"
01:38:22.855 : :The Island
01:42:36.817 : :Poseidon's Trident
01:47:23.603 : :"All Must Divide"
01:52:58.730 : :"Let Me Tell You A Tale"
01:59:09.976 : :Credits
pb.wtf



Скачать Пираты Карибского моря: Мертвецы не рассказывают сказки через торрент https://c.radikal.ru/c12/1907/a3/9f1998a035b1.png Скачать, смотреть онлайн Пираты Карибского моря: Мертвецы не рассказывают сказки бесплантно в хорошем качестве Описание: Исчерпавший свою удачу капитан Джек Воробей обнаруживает, что за ним охотится его старый неприятель, ужасный капитан Салазар и ... 10 10 7
Торрент: Зарегистрирован [2019-07-27 15:38] · скачан: 115 раз
Статус: √ проверено
Размер: 67.61 GB
Как cкачать? Как скачать Пираты Карибского моря: Мертвецы не рассказывают сказки через торрент | UTorrent

28-11-2019 20:33  

Отключить всю рекламу на сайте

    Дорогой пользователь! Огромная просьба, поблагодарите релизера, оцените раздачу и оставьте свои комментарий, если Вы скачали Пираты Карибского моря: Мертвецы не рассказывают сказки через торрент бесплатно!
    Комментировать посты могут только пользователи прошедшие не сложную регистрацию
    Показать сообщения:    

    Пираты Карибского моря: Мертвецы не рассказывают сказки через торрент
    Скачать бесплатно Пираты Карибского моря: Мертвецы не рассказывают сказки
    Пираты Карибского моря: Мертвецы не рассказывают сказки скачать торрент
    Пираты Карибского моря: Мертвецы не рассказывают сказки смотреть онлайн
    Cкачать фильм Пираты Карибского моря: Мертвецы не рассказывают сказки бесплатно
    Пираты Карибского моря: Мертвецы не рассказывают сказки скачать торрент в хорошем качестве
    Пираты Карибского моря: Мертвецы не рассказывают сказки смотреть онлайн бесплатно в хорошем качестве


    Вы не можете начинать темы
    Вы не можете отвечать на сообщения
    Вы не можете редактировать свои сообщения
    Вы не можете удалять свои сообщения
    Вы не можете голосовать в опросах
    Вы не можете прикреплять файлы к сообщениям
    Вы можете скачивать файлы