Ссылка на приватное зеркало нашего сайта всего за 1$. Внимание количество ограничено!!!

2 сезон

iTunes

1 сезон

1

2 сезон

2 сезон

iTunes

1 сезон

RePack

30

Новинка

ВАЖНО

ИГРА 18+

pack

RePack

MK11
pack

Забери бонус

RePack

jed

!!Акция!!

Alien_Rage

RePack

fifa19

RePack

Assassins Creed: Odyssey

RePack

NEED FOR SPEED™ PAYBACK

4 сезон

9 сезон

Бесстыжие 9 сезон

Все сериалы

все сериалы на PB.wtf

RePack

FAR CRY 5
  

Играй или умри / Play or Die (Жак Клюгер) [2019, ужасы, WEB-DL 1080p] DUB [iTunes] pb.wtf

Играй или умри через торрент pb.wtf

Качают: 1 [ 0 KB/s ]
Размер: 4.3 GB | Добавлен: 1 год 3 мес. назад | Торрент скачан:191 раз
Скачать  

27-07-2019 16:56 Играй или умри Скачать торрент  

Играй или умри / Play or Die
Год выпуска: 2019
Страна: Бельгия
Жанр: ужасы
Продолжительность: 01:29:17
Перевод: Дублированный | iTunes
Субтитры: Английские (Full, SDH)

Режиссер: Жак Клюгер

rating

В ролях: Чарли Палмер Ротуэлл, Роксана Мескида, Летиция Шамбон, Хелена Шамбон, Игорь ван Дессель, Томас Мастин, Мария Забуковек, Дафна Хюн, Ализе Ге, Кэролайн Доннелли

Описание: Добро пожаловать в «Паранойю» - самую жестокую игру на выживание, в которой придется сражаться до самого конца. В ней только два правила: «все - обман» и «один из вас умрёт».

Качество: WEB-DL 1080p
Формат: MKV

Видео: MPEG-4 AVC, 5992 Kбит/с, 1920x872, 24.000 fps
Аудио#1: Russian: AC3, 48.0 KHz, 6 ch, 384 kbps - iTunes
Аудио#2: English: AC3, 48.0 KHz, 6 ch, 384 kbps - Original
скриншот  скриншот  скриншот  скриншот  скриншот  

General
Unique ID : 193334429095135173460507517293950593277 (0x9172DB4BF127CF0D92C5D565B01AE8FD)
Complete name : Play.or.Die.2019.WEB-DL.1080p.mkv
Format : Matroska
Format version : Version 2
File size : 4.30 GiB
Duration : 1 h 29 min
Overall bit rate : 6 897 kb/s
Encoded date : UTC 2019-07-29 08:39:57
Writing application : mkvmerge v5.8.0 ('No Sleep / Pillow') built on Sep 2 2012 15:37:04
Writing library : libebml v1.2.3 + libmatroska v1.3.0

Video
ID : 1
Format : AVC
Format/Info : Advanced Video Codec
Format profile : High@L4
Format settings, CABAC : Yes
Format settings, RefFrames : 4 frames
Codec ID : V_MPEG4/ISO/AVC
Duration : 1 h 29 min
Bit rate mode : Constant
Bit rate : 5 992 kb/s
Nominal bit rate : 10 000 kb/s
Width : 1 920 pixels
Height : 872 pixels
Display aspect ratio : 2.2:1
Original display aspect ratio : 2.2:1
Frame rate mode : Constant
Frame rate : 24.000 FPS
Color space : YUV
Chroma subsampling : 4:2:0
Bit depth : 8 bits
Scan type : Progressive
Bits/(Pixel*Frame) : 0.149
Stream size : 3.74 GiB (87%)
Language : English
Default : Yes
Forced : No
Color range : Limited
Color primaries : BT.709
Transfer characteristics : BT.709
Matrix coefficients : BT.709

Audio #1
ID : 2
Format : AC-3
Format/Info : Audio Coding 3
Format settings, Endianness : Big
Codec ID : A_AC3
Duration : 1 h 29 min
Bit rate mode : Constant
Bit rate : 384 kb/s
Channel(s) : 6 channels
Channel positions : Front: L C R, Side: L R, LFE
Sampling rate : 48.0 kHz
Frame rate : 31.250 FPS (1536 SPF)
Bit depth : 16 bits
Compression mode : Lossy
Stream size : 245 MiB (6%)
Title : iTunes
Language : Russian
Service kind : Complete Main
Default : Yes
Forced : No

Audio #2
ID : 3
Format : AC-3
Format/Info : Audio Coding 3
Format settings, Endianness : Big
Codec ID : A_AC3
Duration : 1 h 29 min
Bit rate mode : Constant
Bit rate : 384 kb/s
Channel(s) : 6 channels
Channel positions : Front: L C R, Side: L R, LFE
Sampling rate : 48.0 kHz
Frame rate : 31.250 FPS (1536 SPF)
Bit depth : 16 bits
Compression mode : Lossy
Stream size : 245 MiB (6%)
Title : Original
Language : English
Service kind : Complete Main
Default : No
Forced : No

Text #1
ID : 4
Format : UTF-8
Codec ID : S_TEXT/UTF8
Codec ID/Info : UTF-8 Plain Text
Title : Full
Language : English
Default : No
Forced : No

Text #2
ID : 5
Format : UTF-8
Codec ID : S_TEXT/UTF8
Codec ID/Info : UTF-8 Plain Text
Title : SDH
Language : English
Default : No
Forced : No

Menu
00: 00:00.000 : en:Chapter 1
00: 11:05.665 : en:Chapter 2
00: 16:47.006 : en:Chapter 3
00: 29:23.762 : en:Chapter 4
00: 40:26.424 : en:Chapter 5
00: 51:19.076 : en:Chapter 6
01: 00:44.641 : en:Chapter 7
01: 10:11.207 : en:Chapter 8
01: 18:23.699 : en:Chapter 9
01:27:02.217 : en:Chapter 10

pb.wtf



Скачать Играй или умри через торрент https://i2.imageban.ru/out/2019/07/28/d4c8e6f5c92f6eed41d79998acea22bc.png Скачать фильм Играй или умри через торрент бесплантно в хорошем качестве Описание: Добро пожаловать в «Паранойю» - самую жестокую игру на выживание, в которой придется сражаться до самого конца. В ней только два ... 10 10 7
Торрент: Зарегистрирован [2019-07-29 09:12] · скачан: 191 раз
Статус: √ проверено
Размер: 4.3 GB
Как cкачать? Как скачать Играй или умри через торрент | qTorrent

% Раздел Тема Автор DL S | L
Фильмы 2019-2020 [DVDrip, WEB-DLRip, HDrip] (DUB, MVO) [ 1.58 GB ] Играй или умри / Play or Die [2019 WEB-DLRip-AVC] bober100 Скачать
1 | 0
Фильмы 2019-2020 [DVDrip, WEB-DLRip, HDrip] (DUB, MVO) [ 1.45 GB ] Играй или умри / Play or Die [2019 WEB-DLRip] bober100 Скачать
1 | 0

28-11-2019 20:33  

Отключить всю рекламу на сайте

30-07-2019 09:06 Играй или умри Скачать торрент  

спс за релиз!!! достойное качество, звук...pb.wtf



    Дорогой пользователь! Огромная просьба, поблагодарите релизера, оцените раздачу и оставьте свои комментарий, если Вы скачали Играй или умри через торрент бесплатно! Внесите свою лепту в развитие PiratBit!
    Комментировать посты могут только пользователи прошедшие не сложную регистрацию
    Показать сообщения:    

    Играй или умри через торрент
    Скачать бесплатно Играй или умри
    Играй или умри скачать торрент
    Играй или умри смотреть онлайн
    Cкачать фильм Играй или умри бесплатно
    Играй или умри скачать торрент в хорошем качестве
    Играй или умри смотреть онлайн бесплатно в хорошем качестве


    Вы не можете начинать темы
    Вы не можете отвечать на сообщения
    Вы не можете редактировать свои сообщения
    Вы не можете удалять свои сообщения
    Вы не можете голосовать в опросах
    Вы не можете прикреплять файлы к сообщениям
    Вы можете скачивать файлы