Ссылка на приватное зеркало всего за 1$. Внимание количество ограничено!!!

OK

1+1

iTunes

мы

OK

1

WEB-DLRip

Джокер

Пифагор

Ведьмак / The Witcher сериал

Лицензия

ПШазам

ОК

Оно 2

iTunes

30
pack

Вам бонус

ВАЖНО

!!Акция!!

Alien_RageХит недели

RePack

Resident Evil 21

ИГРА 18+

pack

RePack

jed

!!Акция!!

Alien_Rage

RePack

fifa19

RePack

Assassins Creed: Odyssey

RePack

NEED FOR SPEED™ PAYBACK

4 сезон

9 сезон

Бесстыжие 9 сезон

Все сериалы

все сериалы на PB.wtf

RePack

FAR CRY 5
  

Убивая Еву / Killing Eve / Сезон: 1 / Серии: 1-8 из 8 (Джон Ист, Дэймон Томас, Гарри Брэдбир) [2018, драма, WEB-DL 1080p] MVO [Amedia] pb.wtf

Убивая Еву через торрент pb.wtf

Раздают: 1 [ 0 KB/s ]
Размер: 13.47 GB | Добавлен: 5 мес. 23 д. назад | Торрент скачан:18 раз
Скачать  

28-07-2019 00:24 Убивая Еву Скачать торрент  

Убивая Еву | Killing Eve Год выпуска: 2018
Страна: США, Великобритания, Италия
Жанр: Триллер, драма
Продолжительность: ~ 00:43:00
Перевод: Профессиональный (многоголосый закадровый) | Amedia
Субтитры: Русские (Forced | Full [Amedia]), Английские (Full | SDH)

Режиссёр: Джон Ист, Дэймон Томас, Гарри Брэдбир

В ролях: Сандра О, Джоди Комер, Фиона Шоу, Ким Бодния, Оуэн МакДоннел, Шон Делани, Кирби Хауэлл-Баптисте, Даррен Бойд, Дэвид Хэйгб, Дэвид Бертран

Описание: Триллер о наемной убийце с русскими корнями и мелодичным псевдонимом Вилланель. В ходе очередного задания эта безжалостная особа сталкивается с достойным противником — скромной сотрудницей спецслужб, которая отчаянно хочет изменить свою скучную жизнь.

by itunestv

Качество: WEB-DL 1080p
Контейнер: MKV

Видео: H.264/AVC, 1916x1076 (1.78:1), 25.000 кадров/сек, ~5246 Кбит/сек, ~0.102 bit/pixel
Аудио Rus: AC3, 48,0 kHz, 2 ch, 192 Кбит/сек | Amedia
Аудио Eng: AC3, 48 kHz, 3/2 (L,C,R,l,r) + LFE ch, 384 Кбит/сек


Реклама: Отсутствует
01. Nice Face / Милая мордашка
02. I'll Deal with Him Later / Избавлюсь от него потом
03. Don't I Know You? / Я вас знаю?
04. Sorry Baby / Прости, малыш
05. I Have a Thing About Bathrooms / Я предпочитаю ванные
06. Take Me to the Hole! / Ведите меня в Дыру
07. I Don't Want to Be Free / Не хочу быть свободной
08. God, I'm Tired
General
Unique ID : 68682626214468004787908933669062347693 (0x33ABCAEB041A47D1190FF4C70BC68BAD)
Complete name : Killing.Eve.2018.S01.1080p.WEB-DL.H264.RUS.SRT\Killing.Eve.Nice.Face.S01E01.1080p.WEB-DL.H264.DD2.0.RUS.SRT.mkv
Format : Matroska
Format version : Version 4 / Version 2
File size : 1.71 GiB
Duration : 42 min 6 s
Overall bit rate : 5 825 kb/s
Movie name : Killing Eve, Season 1 / Nice Face
Track name/Position : 1
Track name/Total : 20
Description : MI5 security officer Eve is bored in her job and yearns for a more exciting life. When a Russian
Released date : 2018-04-08
Encoded date : UTC 2018-08-19 04:48:26
Writing application : mkvmerge v25.0.0 ('Prog Noir') 64-bit
Writing library : libebml v1.3.6 + libmatroska v1.4.9

Video
ID : 1
Format : AVC
Format/Info : Advanced Video Codec
Format profile : High@L4
Format settings : CABAC / 4 Ref Frames
Format settings, CABAC : Yes
Format settings, RefFrames : 4 frames
Codec ID : V_MPEG4/ISO/AVC
Duration : 42 min 6 s
Bit rate : 5 246 kb/s
Width : 1 916 pixels
Height : 1 076 pixels
Display aspect ratio : 16:9
Frame rate mode : Constant
Frame rate : 25.000 FPS
Color space : YUV
Chroma subsampling : 4:2:0
Bit depth : 8 bits
Scan type : Progressive
Bits/(Pixel*Frame) : 0.102
Stream size : 1.54 GiB (90%)
Language : English
Default : Yes
Forced : No
Color range : Limited
Color primaries : BT.709
Transfer characteristics : BT.709
Matrix coefficients : BT.709

Audio #1
ID : 2
Format : AC-3
Format/Info : Audio Coding 3
Format settings, Endianness : Big
Codec ID : A_AC3
Duration : 42 min 6 s
Bit rate mode : Constant
Bit rate : 192 kb/s
Channel(s) : 2 channels
Channel positions : Front: L R
Sampling rate : 48.0 kHz
Frame rate : 31.250 FPS (1536 SPF)
Bit depth : 16 bits
Compression mode : Lossy
Stream size : 57.8 MiB (3%)
Title : NovaMedia
Language : Russian
Service kind : Complete Main
Default : Yes
Forced : No

Audio #2
ID : 3
Format : AC-3
Format/Info : Audio Coding 3
Format settings, Endianness : Big
Codec ID : A_AC3
Duration : 42 min 6 s
Bit rate mode : Constant
Bit rate : 384 kb/s
Channel(s) : 6 channels
Channel positions : Front: L C R, Side: L R, LFE
Sampling rate : 48.0 kHz
Frame rate : 31.250 FPS (1536 SPF)
Bit depth : 16 bits
Compression mode : Lossy
Stream size : 116 MiB (7%)
Language : English
Service kind : Complete Main
Default : No
Forced : No

Text #1
ID : 4
Format : UTF-8
Codec ID : S_TEXT/UTF8
Codec ID/Info : UTF-8 Plain Text
Duration : 41 min 26 s
Bit rate : 7 b/s
Count of elements : 62
Stream size : 2.32 KiB (0%)
Title : Forced
Language : Russian
Default : Yes
Forced : Yes

Text #2
ID : 5
Format : UTF-8
Codec ID : S_TEXT/UTF8
Codec ID/Info : UTF-8 Plain Text
Duration : 41 min 26 s
Bit rate : 89 b/s
Count of elements : 539
Stream size : 27.3 KiB (0%)
Title : Amedia
Language : Russian
Default : No
Forced : No

Text #3
ID : 6
Format : UTF-8
Codec ID : S_TEXT/UTF8
Codec ID/Info : UTF-8 Plain Text
Duration : 38 min 48 s
Bit rate : 51 b/s
Count of elements : 473
Stream size : 14.6 KiB (0%)
Language : English
Default : No
Forced : No

Text #4
ID : 7
Format : UTF-8
Codec ID : S_TEXT/UTF8
Codec ID/Info : UTF-8 Plain Text
Duration : 41 min 38 s
Bit rate : 56 b/s
Count of elements : 585
Stream size : 17.1 KiB (0%)
Title : SDH
Language : English
Default : No
Forced : No
скриншот  скриншот  скриншот  скриншот  
pb.wtf



Скачать Убивая Еву через торрент https://i106.fastpic.ru/big/2018/1124/ad/212389efa3152d4d4daeb7176eeef8ad.jpg Скачать фильм Убивая Еву через торрент бесплантно в хорошем качестве Описание: Триллер о наемной убийце с русскими корнями и мелодичным псевдонимом Вилланель. В ходе очередного задания эта безжалостная особа ... 10 10 3
Торрент: Зарегистрирован [2019-07-28 00:24] · скачан: 18 раз
Статус: √ проверено
Размер: 13.47 GB
Как cкачать? Как скачать Убивая Еву через торрент | qTorrent

% Раздел Тема Автор DL S | L
Зарубежные сериалы [ 18.42 GB ] Убивая Еву / Killing Eve / Сезон: 2 / Серии: 1-8 из 8 [2019 WEB-DL 1080p] [MVO] killermax2013 Скачать
1 | 0
Зарубежные сериалы [ 4.62 GB ] Убивая Еву / Killing Eve / Сезон: 2 / Серии: 1-8 из 8 [2019 . WEB-DLRip] MVO [LostFilm] bober100 Скачать
4 | 0
Зарубежные сериалы [ 18.96 GB ] Убивая Еву / Killing Eve / Сезон: 2 / Серии: 1-8 из 8 [2019 WEB-DL 1080p] [MVO] killermax2013 Скачать
2 | 0
Зарубежные сериалы [ 4.32 GB ] Убивая Еву / Killing Eve / Сезон: 2 / Серии: 1-8 из 8 [2019 WEB-DLRip] [MVO] killermax2013 Скачать
1 | 0
Зарубежные сериалы [ 5.66 GB ] Убивая Еву / Killing Eve / Сезон: 2 / Серии: 1-8 из 8 [2019 WEB-DLRip] [MVO] killermax2013 Скачать
2 | 0
Зарубежные сериалы [ 18.4 GB ] Убивая Еву / Killing Eve / Сезон: 1 / Серии: 1-8 из 8 [2018 WEB-DL 1080p] [MVO] killermax2013 Скачать
1 | 0
Зарубежные сериалы [ 8.17 GB ] Убивая Еву / Killing Eve / Сезон: 1 / Серии: 1-8 из 8 [2018 WEB-DL 720p] [MVO] killermax2013 Скачать
1 | 0

28-11-2019 20:33  

Отключить всю рекламу на сайте

    Дорогой пользователь! Огромная просьба, поблагодарите релизера, оцените раздачу и оставьте свои комментарий, если Вы скачали Убивая Еву через торрент бесплатно! Внесите свою лепту в развитие PiratBit!
    Комментировать посты могут только пользователи прошедшие не сложную регистрацию
    Показать сообщения:    

    Убивая Еву через торрент
    Скачать бесплатно Убивая Еву
    Убивая Еву скачать торрент
    Убивая Еву смотреть онлайн
    Cкачать фильм Убивая Еву бесплатно
    Убивая Еву скачать торрент в хорошем качестве
    Убивая Еву смотреть онлайн бесплатно в хорошем качестве


    Вы не можете начинать темы
    Вы не можете отвечать на сообщения
    Вы не можете редактировать свои сообщения
    Вы не можете удалять свои сообщения
    Вы не можете голосовать в опросах
    Вы не можете прикреплять файлы к сообщениям
    Вы можете скачивать файлы