новый адрес
Ссылка на приватное зеркало всего за 1$. Внимание количество ограничено!!!

iTunes

1+1

iTunes

мы

iTunes

1

iTunes

Чернобыль

iTunes

Ральф против интернета

Лицензия

ПШазам

Лицензия

Оно 2

Лицензия

30
pack

Вам бонус

ВАЖНО

!!Акция!!

Alien_RageХит недели

RePack

Resident Evil 21

ИГРА 18+

pack

RePack

jed

!!Акция!!

Alien_Rage

RePack

fifa19

RePack

Assassins Creed: Odyssey

RePack

NEED FOR SPEED™ PAYBACK

3 сезон

9 сезон

Бесстыжие 9 сезон

Все сериалы

все сериалы на PB.wtf

RePack

FAR CRY 5
Ребята, катастрофически не хватает 1900р. для оплаты серверов за Октябрь (всвязи с блокировками трафик упал в 3 раза), 1-2р., выручайте.
  

Лето (Кирилл Серебренников) [2018, биография, музыка, драма, WEB-DLRip] [Лицензия] pb.wtf

Лето через торрент pb.wtf

Раздают: 5 [ 5 KB/s ]
Размер: 1.46 GB | Добавлен: 3 мес. 25 д. назад | Торрент скачан:216 раз
Скачать  

28-07-2019 02:11 Лето Скачать торрент  

Лето
Год выпуска: 2018
Страна: Россия
Жанр: биография, музыка, драма
Продолжительность: 02:08:34
Перевод: Не требуется | Лицензия
Субтитры: отсутствуют

Режиссер: Кирилл Серебренников

rating

В ролях:

Рома Зверь (Майк), Ирина Старшенбаум (Наташа), Тео Ю (Виктор), Филипп Авдеев (Лёня), Евгений Серзин (Олег), Александр Горчилин (Панк), Василий Михайлов (Иша), Александр Кузнецов (Скептик), Никита Ефремов (Боб), Герман Осипов (гитарист), Дмитрий Жук (басист), Валентин Тарасов (барабанщик)
Описание: Фильм рассказывает о самом начале творческого пути Виктора Цоя и группы «Кино», о его взаимоотношениях с Майком Науменко, его женой Натальей и многими, кто был в авангарде рок-движения Ленинграда 1981 года. Это история о Ленинграде 80-х, о любви, поисках и больших надеждах - о настроении, которое останется с нами навсегда.

Качество: WEB-DLRip
Формат: AVI

Видео: Xvid 73, 704x288, ~1166 kbps, 23,976 fps
Аудио: русский, AC3, 5.1 ch, 48 kHz, 448 kbps | Лицензия
скриншот  скриншот  скриншот  скриншот  скриншот  

General
Complete name : C:UtorrentLetoLicWEBDLRip.avi
Format : AVI
Format/Info : Audio Video Interleave
Format profile : OpenDML
File size : 1.46 GiB
Duration : 2 h 8 min
Overall bit rate : 1 626 kb/s
Writing application : XviD4PSP 6.0 / 53.6.0

Video
ID : 0
Format : MPEG-4 Visual
Format profile : Advanced Simple@L5
Format settings : BVOP1 / Custom Matrix
Format settings, BVOP : 1
Format settings, QPel : No
Format settings, GMC : No warppoints
Format settings, Matrix : Custom
Codec ID : XVID
Codec ID/Hint : XviD
Duration : 2 h 8 min
Bit rate : 1 166 kb/s
Width : 704 pixels
Height : 288 pixels
Display aspect ratio : 2.40:1
Frame rate : 23.976 (23976/1000) FPS
Color space : YUV
Chroma subsampling : 4:2:0
Bit depth : 8 bits
Scan type : Progressive
Compression mode : Lossy
Bits/(Pixel*Frame) : 0.240
Stream size : 1.05 GiB (72%)
Writing library : XviD 73

Audio
ID : 1
Format : AC-3
Format/Info : Audio Coding 3
Commercial name : Dolby Digital
Codec ID : 2000
Duration : 2 h 8 min
Bit rate mode : Constant
Bit rate : 448 kb/s
Channel(s) : 6 channels
Channel layout : L R C LFE Ls Rs
Sampling rate : 48.0 kHz
Frame rate : 31.250 FPS (1536 SPF)
Bit depth : 16 bits
Compression mode : Lossy
Stream size : 412 MiB (28%)
Alignment : Aligned on interleaves
Interleave, duration : 32 ms (0.77 video frame)

pb.wtf



Скачать Лето через торрент http://lostpix.com/thumbs/2019-07/27/15i3tu1086xgvohncxso4a3b7.png Скачать фильм Лето через торрент бесплантно в хорошем качестве Описание: Фильм рассказывает о самом начале творческого пути Виктора Цоя и группы «Кино», о его взаимоотношениях с Майком Науменко, его ... 8.5 10 8
Торрент: Зарегистрирован [2019-07-28 02:11] · скачан: 216 раз
Статус: √ проверено
Размер: 1.46 GB
Как cкачать? Как скачать Лето через торрент | qTorrent

% Раздел Тема Автор DL S | L
Рок, Панк, Альтернатива (mp3) [ 475 MB ] Пикник 30 световых лет - 2011 MP3 320 kbps alexandr2405 Скачать
1 | 0
Фильмы до 2000 г. [ 1.46 GB ] Я знаю что вы сделали прошлым летом / I Know What You Did Last Summer [1997 HDRip] feldeger Скачать
1 | 0
Детские обучающие игры [ 37 MB ] "Супердетки" - Учимся рисовать Anonymous Скачать
1 | 0
Русские порно ролики [ 55 MB ] Мужик лет 45 и девушка года 22 трахаются. Кот палит [2222 all sex CamRip] Anonymous Скачать
1 | 2
Наши сериалы [ 3.27 GB ] Капли крови на цветущем вереске / Лето волков2011 SATRip / Серии: 6 из 6 [2011 военная SATRip] -=Cherry=- Скачать
1 | 0
Фильмы 2009 [ 1.46 GB ] 500 дней лета / Days of Summer [2009 HDRip] L_E_X Скачать
1 | 0
Дополнения к играм [ 4.48 GB ] The Sims 2. Горящее лето 2011 2011 [ДополнениеRUAdd-on / Strategy / 3D] Shmel Скачать
1 | 0

28-07-2019 11:45 Лето Скачать торрент  

Если вот по существу за что этот фильм получил такую высокую оценку?pb.wtf



06-10-2019 15:53 Лето Скачать торрент  

Risk писал(а):

Если вот по существу за что этот фильм получил такую высокую оценку?

А я тебе обьясню.Наверно не для кого не секрет постоянные разговоры о пятой колоне.Так вот Серебряков как раз яркий представитель "творческой прослойки" в пятой колоне и еже с ним еще куча разных наших актеров которые его поддерживают.Им не нравился Советский Союз а в дальнейшем и современная Россия.Им нравится Западная культура c их ценностями и в первую очередь свобода выражения любой своей мысли как им хочется. Отвязанный образ жизни, употребление всего что нравится,свобода любых половых отношений.И все это этот гений современной мысли пытался воплощать на сценах Российских театров пока ему хвост не прижали.В этой ленте очень хорошо показано кто они те кто развивал в массы музыку 80-90 в СССР их образ жизни и моральные устои.А высокие оценки потому что многие до сих пор не понимают как разваливали СССР, с помощью чего и кто это все делал.И сейчас эти гнилые корни растут и цветут везде потому что у них цель не завершена.pb.wtf



    Дорогой пользователь! Огромная просьба, поблагодарите релизера, оцените раздачу и оставьте свои комментарий, если Вы скачали Лето через торрент бесплатно! Внесите свою лепту в развитие PiratBit!
    Комментировать посты могут только пользователи прошедшие не сложную регистрацию
    Показать сообщения:    

    Лето через торрент
    Скачать бесплатно Лето
    Лето скачать торрент
    Лето смотреть онлайн
    Cкачать фильм Лето бесплатно
    Лето скачать торрент в хорошем качестве
    Лето смотреть онлайн бесплатно в хорошем качестве


    Вы не можете начинать темы
    Вы не можете отвечать на сообщения
    Вы не можете редактировать свои сообщения
    Вы не можете удалять свои сообщения
    Вы не можете голосовать в опросах
    Вы не можете прикреплять файлы к сообщениям
    Вы можете скачивать файлы