Ссылка на приватное зеркало всего за 1$. Внимание количество ограничено!!!

OK

1+1

iTunes

мы

OK

1

WEB-DLRip

Джокер

Пифагор

Ведьмак / The Witcher сериал

iTunes

ПШазам

ОК

Оно 2

iTunes

30
pack

Вам бонус

ВАЖНО

!!Акция!!

Alien_RageХит недели

RePack

Resident Evil 21

ИГРА 18+

pack

RePack

jed

RePack

fifa19

RePack

Assassins Creed: Odyssey

RePack

NEED FOR SPEED™ PAYBACK

4 сезон

9 сезон

Бесстыжие 9 сезон

Все сериалы

все сериалы на PB.wtf

RePack

FAR CRY 5
  

Команда с нашей улицы (Алексей Маслюков) [1953, СССР, детский, VHSRip от AVP Studio] pb.wtf

Команда с нашей улицы через торрент pb.wtf

Раздают: 2 [ 0 KB/s ]
Размер: 1.09 GB | Добавлен: 5 мес. назад | Торрент скачан:7 раз
Скачать  

28-07-2019 08:00 Команда с нашей улицы Скачать торрент  

Команда с нашей улицы
Страна: СССР
Производство: Киевская киностудия

Жанр: детский
Год выпуска: 1963
Продолжительность: 01:22:09

Перевод: Не требуется
Cубтитры: нет
Оригинальная аудиодорожка: русский

Режиссер: Алексей Маслюков

В ролях:
Костя Евгеньев, Галина Кавура, Саша Симонов, Алик Лабутин, Лариса Борисенко, Эдик Хандрос, Сергей Петров, Дина Андреева, Алла Ларионова, Надир Малишевский, Николай Рыбников, Степан Каюков...
Об актёрах подробней

Описание:
Забросив все намеченные на лето дела, пионерское звено целые дни напролет гоняет мяч во дворе и на улице. Больше всего это возмущает жильцов дома. Назревает скандал. Выход находит младшая сестра лидера команды. Таня предлагает построить детский стадион. Ее предложение поддерживают шефы и подхватывают пионеры лагеря…

Исходник: VHS
Качество видео: VHSRip
Формат видео: AVI

Видео: 704x528 (4:3), 25,000 кадров/сек, XviD ~ 1698 kbps avg, 0.183 bit/pixel
Аудио: 48 kHz, Dolby Digital AC3 2.0, 192 kbps

Раздача от:
Общее
Полное имя : Komanda.s.nashey.ulicy.1953.SATRip_[New-team]_by_AVP_Studio.avi
Формат : AVI
Формат/Информация : Audio Video Interleave
Размер файла : 1,09 Гбайт
Продолжительность : 1 ч. 22 м.
Общий поток : 1900 Кбит/сек
Программа кодирования : VirtualDubMod 1.5.10.3 | www.virtualdub-fr.org || (build 2550/release)
Библиотека кодирования : VirtualDubMod build 2550/release

Видео
Идентификатор : 0
Формат : MPEG-4 Visual
Профиль формата : Advanced Simple@L5
Настройки формата : BVOP1 / Custom Matrix
Параметр BVOP формата : 1
Параметр QPel формата : Нет
Параметр GMC формата : Без точки перехода
Параметр матрицы формата : Выборочная
Идентификатор кодека : XVID
Идентификатор кодека/Подсказка : XviD
Продолжительность : 1 ч. 22 м.
Битрейт : 1698 Кбит/сек
Ширина : 704 пикселя
Высота : 528 пикселей
Соотношение сторон : 4:3
Частота кадров : 25,000 кадров/сек
Цветовое пространство : YUV
Субдискретизация насыщенности : 4:2:0
Битовая глубина : 8 бит
Тип развёртки : Прогрессивная
Метод сжатия : С потерями
Бит/(Пиксели*Кадры) : 0.183
Размер потока : 998 Мбайт (89%)
Библиотека кодирования : XviD 73

Аудио
Идентификатор : 1
Формат : AC-3
Формат/Информация : Audio Coding 3
Коммерческое название : Dolby Digital
Идентификатор кодека : 2000
Продолжительность : 1 ч. 22 м.
Вид битрейта : Постоянный
Битрейт : 192 Кбит/сек
Каналы : 2 канала
ChannelLayout : L R
Частота : 48,0 КГц
Частота кадров : 31,250 кадров/сек (1536 SPF)
Битовая глубина : 16 бит
Метод сжатия : С потерями
Размер потока : 113 Мбайт (10%)
Выравнивание : Разделение по промежуткам
Продолжительность промежутка : 40 мс. (1,00 видеокадр)
Время предзагрузки промежутка : 500 мс
pb.wtf



Скачать Команда с нашей улицы через торрент http://d.radikal.ru/d43/1912/c0/2cd2239ae936.png Скачать фильм Команда с нашей улицы через торрент бесплантно в хорошем качестве Описание:Забросив все намеченные на лето дела, пионерское звено целые дни напролет гоняет мяч во дворе и на улице. Больше всего это ... 9 10 1
Торрент: Зарегистрирован [2019-07-28 08:00] · скачан: 7 раз
Статус: √ проверено
Размер: 1.09 GB
Как cкачать? Как скачать Команда с нашей улицы через торрент | qTorrent

% Раздел Тема Автор DL S | L
Детские отечественные фильмы [ 1.09 GB ] Команда с нашей улицы [1953 СССР детский VHSRip-AVC от AVP Studio] AVP Studio Скачать
2 | 0

28-11-2019 20:33  

Отключить всю рекламу на сайте

    Дорогой пользователь! Огромная просьба, поблагодарите релизера, оцените раздачу и оставьте свои комментарий, если Вы скачали Команда с нашей улицы через торрент бесплатно! Внесите свою лепту в развитие PiratBit!
    Комментировать посты могут только пользователи прошедшие не сложную регистрацию
    Показать сообщения:    

    Команда с нашей улицы через торрент
    Скачать бесплатно Команда с нашей улицы
    Команда с нашей улицы скачать торрент
    Команда с нашей улицы смотреть онлайн
    Cкачать фильм Команда с нашей улицы бесплатно
    Команда с нашей улицы скачать торрент в хорошем качестве
    Команда с нашей улицы смотреть онлайн бесплатно в хорошем качестве


    Вы не можете начинать темы
    Вы не можете отвечать на сообщения
    Вы не можете редактировать свои сообщения
    Вы не можете удалять свои сообщения
    Вы не можете голосовать в опросах
    Вы не можете прикреплять файлы к сообщениям
    Вы можете скачивать файлы